<?xml version="1.0" standalone="no"?>
<!DOCTYPE svg PUBLIC "-//W3C//DTD SVG 1.1//EN" "http://www.w3.org/Graphics/SVG/1.1/DTD/svg11.dtd" >
<svg xmlns="http://www.w3.org/2000/svg">
<metadata>
This is a custom SVG webfont generated by Font Squirrel.
Copyright   : Copyright  2010 Heber Xavier Arroyo  All Rights Reserved  heberxarroyogmailcom
</metadata>
<defs>
<font id="ARTechniRegular" horiz-adv-x="1014" >
<font-face units-per-em="2048" ascent="1638" descent="-410" />
<missing-glyph horiz-adv-x="508" />
<glyph unicode=" "  horiz-adv-x="508" />
<glyph unicode="&#x09;" horiz-adv-x="508" />
<glyph unicode="&#xa0;" horiz-adv-x="508" />
<glyph unicode="!" horiz-adv-x="583" d="M188 104v10q0 45 46 81q30 18 54 18h11q39 0 74 -36q26 -32 26 -63v-10q0 -43 -30 -73q-32 -31 -77 -31q-67 0 -99 71q-5 18 -5 33zM208 1352q0 48 49 76q20 7 31 7h11q47 0 73 -50q6 -17 6 -29q-41 -1030 -43 -1030q-15 -28 -35 -28h-13q-22 0 -35 32q-4 55 -44 1022z " />
<glyph unicode="&#x22;" horiz-adv-x="672" d="M104 1371q0 48 50 76q18 8 36 8h1q58 0 83 -61q3 -15 3 -23q0 -21 -45 -343q-14 -27 -43 -27q-38 0 -43 49q-42 311 -42 321zM405 1369q0 53 55 80q15 6 34 6q47 0 75 -47q9 -17 9 -33v-9q-41 -327 -47 -342q-14 -23 -38 -23h-2q-30 0 -41 31q-3 17 -45 337z" />
<glyph unicode="#" horiz-adv-x="1627" d="M100 454v11q0 49 58 76q16 4 23 4h291v344h-266q-68 0 -87 33q-19 21 -19 50v7q0 54 61 79q15 4 45 4h266v270q0 77 58 98q12 4 22 4h15q43 0 70 -48q8 -18 8 -34v-290h344v270q0 77 58 98q12 4 22 4h15q43 0 70 -48q8 -18 8 -34v-290h263q65 0 82 -23q28 -26 28 -60v-7 q0 -58 -66 -81q-16 -2 -44 -2h-263v-344h290q54 0 79 -59q4 -14 4 -21v-11q0 -50 -58 -77q-20 -5 -45 -5h-270v-289q0 -54 -59 -79q-14 -4 -24 -4h-5q-55 0 -80 59q-5 15 -5 47v266h-344v-289q0 -54 -59 -79q-14 -4 -24 -4h-6q-54 0 -79 59q-5 15 -5 47v266h-271 q-70 0 -94 52q-7 19 -7 30zM645 545h344v344h-344v-344z" />
<glyph unicode="$" horiz-adv-x="1062" d="M100 347q0 51 50 78q16 8 36 8h10q42 0 73 -48q26 -84 59 -119q33 -39 69 -58q7 -5 44 -21v559q-1 2 -69 30q-34 14 -101 76q-69 81 -85 170q-6 29 -6 49v22q0 172 145 285q50 32 92 47q24 5 24 8v70q0 84 60 103q0 4 23 5h16q41 0 71 -50q8 -18 8 -34v-95 q77 -18 153 -83q67 -70 89 -133q7 -24 7 -34q0 -65 -64 -88q-13 -2 -20 -2h-5q-66 0 -92 78q-27 48 -70 73v-373q121 -40 170 -79q63 -47 106 -109q76 -116 76 -250q0 -198 -162 -340q-94 -71 -190 -89v-97q0 -48 -57 -77q-15 -4 -24 -4h-14q-46 0 -74 53q-8 10 -8 58v66 q0 2 -43 12q-78 26 -134 70q-54 40 -97 100q-59 93 -66 163zM356 1089q0 -61 48 -117q25 -24 37 -30v298q-85 -56 -85 -151zM617 682v-495q101 40 145 129q29 57 29 111v12q0 126 -116 213q-21 14 -58 30z" />
<glyph unicode="%" horiz-adv-x="1530" d="M100 1118v27q0 89 70 182q53 67 163 100q40 7 61 7h14q111 0 207 -86q89 -97 89 -206v-22q0 -110 -91 -207q-96 -84 -203 -84h-16q-107 0 -203 84q-61 55 -86 160q-5 27 -5 45zM273 1140v-9q0 -81 82 -121q27 -8 48 -8q69 0 112 66q16 32 16 61v11q0 52 -56 98 q-37 23 -71 23h-4q-70 0 -113 -71q-14 -30 -14 -50zM314 78v12q0 29 33 76l655 1131q60 113 80 121q20 16 51 16q61 0 83 -69q2 -6 2 -12v-9q0 -27 -29 -71q-674 -1162 -684 -1181q-42 -73 -51 -73q-20 -19 -52 -19h-10q-41 0 -70 49q-8 18 -8 29zM831 290v24q0 106 89 204 q97 86 202 86h25q97 0 191 -78q61 -61 74 -107q24 -54 24 -104v-26q0 -98 -79 -192q-61 -60 -107 -73q-54 -24 -103 -24h-27q-102 0 -200 86q-89 98 -89 204zM1005 303q0 -87 88 -124q20 -6 36 -6h9q67 0 111 70q13 30 13 60v5q0 56 -54 99q-34 24 -69 24h-11 q-55 0 -100 -54q-23 -37 -23 -69v-5z" />
<glyph unicode="&#x26;" horiz-adv-x="1201" d="M100 345v21q0 119 88 232q152 221 165 238q-112 159 -135 197q-33 66 -33 130q0 123 103 214q80 58 164 58h13q107 0 195 -86q71 -85 71 -180v-16q0 -91 -79 -190q-1 -4 -87 -126q262 -379 289 -414q5 5 134 103h1q8 -8 96 -137q3 0 3 -5q-22 -18 -136 -103 q17 -26 194 -279q0 -2 -3 -2h-207q-1 0 -123 175q-136 -103 -174 -128q-88 -47 -170 -47h-20q-115 0 -222 83q-56 53 -78 92q-49 90 -49 170zM273 353q0 -74 67 -136q54 -44 120 -44q69 0 138 58q113 86 116 86q-242 349 -256 367q-163 -236 -163 -239q-22 -40 -22 -92z M359 1162q0 -39 47 -97l52 -76q18 22 84 119q16 28 16 57q0 53 -54 86q-24 11 -46 11q-56 0 -89 -57q-10 -20 -10 -43z" />
<glyph unicode="'" horiz-adv-x="377" d="M108 1370q0 48 50 76q18 8 36 8h1q58 0 82 -61q4 -15 4 -23q0 -21 -45 -343q-14 -27 -43 -27q-38 0 -43 50q-42 310 -42 320z" />
<glyph unicode="(" horiz-adv-x="538" d="M100 687v56q0 345 162 701q60 119 77 136q28 24 55 24h46q3 -1 3 -3q-171 -431 -171 -885q0 -450 171 -885l-3 -1h-49q-53 0 -91 87q-45 79 -94 207q-22 50 -63 207q-43 194 -43 356z" />
<glyph unicode=")" horiz-adv-x="548" d="M106 -167q171 432 171 867v36q0 433 -171 869l3 1h46q46 0 75 -52q220 -391 220 -836v-2q0 -449 -227 -846q-30 -40 -68 -40h-46q-3 0 -3 3z" />
<glyph unicode="*" horiz-adv-x="975" d="M102 1219v2q0 27 29 40q7 2 10 2h242q-168 169 -175 179q-5 12 -5 15v9q0 29 35 40h14q18 0 46 -33l148 -147v242q0 24 30 37q4 2 12 2h3q42 -7 42 -42v-238q174 175 178 175q12 4 16 4h8q30 0 41 -35v-14q0 -17 -34 -46l-147 -148h240q30 0 42 -35v-9q0 -28 -30 -40 q-4 -2 -9 -2h-243q176 -177 176 -179q5 -12 5 -15v-9q0 -30 -36 -40h-13q-19 0 -59 46l-135 134v-242q0 -24 -30 -37q-5 -2 -12 -2h-3q-27 0 -40 29q-2 7 -2 10v242q-176 -176 -178 -176q-12 -4 -16 -4h-9q-29 0 -40 34v15q0 18 44 57l136 137h-242q-23 0 -37 29q-2 7 -2 13 z" />
<glyph unicode="+" horiz-adv-x="886" d="M100 712v8q0 39 37 68q25 15 45 15h175v152q0 62 27 81q25 24 54 24h13q36 0 66 -37q14 -20 14 -70v-150h175q41 0 70 -41q13 -25 13 -42v-8q0 -38 -38 -67q-25 -15 -45 -15h-175v-150q0 -55 -18 -74q-28 -33 -65 -33h-7q-44 0 -72 44q-12 16 -12 63v150h-175 q-38 0 -67 37q-15 25 -15 45z" />
<glyph unicode="," horiz-adv-x="414" d="M50 -216q0 10 54 333q14 41 47 62q28 15 50 15h13q48 0 84 -45q18 -28 18 -60v-10q0 -33 -46 -96q-116 -187 -145 -229q-16 -13 -30 -13q-34 0 -44 33q-1 5 -1 9v1z" />
<glyph unicode="-" horiz-adv-x="623" d="M100 506v13q0 45 49 72q18 8 33 8h265q52 0 79 -57q5 -17 5 -26v-9q0 -39 -44 -71q-24 -10 -37 -10h-268q-52 0 -79 58q-3 15 -3 22z" />
<glyph unicode="." horiz-adv-x="412" d="M100 107q0 36 24 69q37 39 79 39h11q51 0 88 -53q14 -26 14 -50v-9q0 -51 -49 -86q-27 -17 -53 -17h-11q-50 0 -87 51q-16 30 -16 56z" />
<glyph unicode="/" horiz-adv-x="968" d="M-4 -40q0 24 34 84l612 1226q165 328 172 340q28 32 67 32h7q52 0 77 -59q3 -14 3 -25v-10q0 -22 -52 -118q0 -2 -623 -1247q-133 -268 -144 -283q-27 -32 -68 -32q-59 0 -82 61q-3 11 -3 23v8z" />
<glyph unicode="0" horiz-adv-x="1056" d="M60 717q0 258 111 500q18 38 64 90q59 58 90 72q95 55 192 55h24q115 0 227 -77q104 -77 152 -220q77 -203 77 -405v-29q0 -247 -111 -488q-20 -41 -78 -103q-73 -73 -198 -104q-44 -8 -75 -8h-12q-143 0 -266 105q-66 67 -89 119q-108 242 -108 493zM233 716 q0 -209 88 -410q35 -71 107 -108q48 -25 102 -25q117 0 194 109q65 121 94 318q5 51 5 104v23q0 203 -85 398q-10 30 -57 78q-69 58 -146 58h-12q-92 0 -168 -80q-30 -38 -50 -90q-72 -185 -72 -375z" />
<glyph unicode="1" horiz-adv-x="650" d="M150 1091v169q0 2 2 2h7q64 0 119 58q43 53 43 105v6q0 2 2 2h170q2 0 2 -2v-1324q0 -58 -22 -78q-26 -29 -65 -29q-56 0 -81 58q-5 12 -5 49v925q0 46 -29 54q-5 2 -12 2h-129q-2 0 -2 3z" />
<glyph unicode="2" horiz-adv-x="1087" d="M100 991q0 150 100 281q58 64 93 84q118 78 240 78h18q164 0 298 -119q60 -60 85 -110q55 -104 55 -203v-27q0 -122 -84 -249q-29 -36 -79 -84l-409 -401q-8 -14 -8 -25q0 -35 41 -42h435q65 0 88 -37q16 -22 16 -42v-17q0 -37 -42 -67q-21 -11 -40 -11h-805q-2 0 -2 2 v170l651 640q66 84 66 172v10q0 88 -63 169q-89 98 -208 98q-126 0 -213 -102q-59 -79 -59 -169q0 -71 37 -138q12 -22 12 -40v-11q0 -43 -46 -70q-19 -10 -35 -10h-11q-61 0 -98 102q-33 84 -33 168z" />
<glyph unicode="3" horiz-adv-x="1064" d="M80 431q0 65 45 89q19 10 35 10h14q39 0 68 -44q13 -19 13 -75q20 -98 59 -137q29 -35 57 -53q74 -48 148 -48h11q98 0 186 78q80 88 80 185v17q0 96 -80 184q-88 79 -186 79h-4q-2 0 -2 2v169q0 3 2 3h3q69 0 129 57q52 58 52 120v16q0 69 -62 130q-58 47 -119 47h-9 q-73 0 -135 -63q-46 -55 -46 -133q-3 -22 -21 -47q-29 -28 -59 -28h-13q-43 0 -71 47q-9 19 -9 35v10q0 99 62 196q15 25 64 72q108 84 220 84h24q123 0 234 -95q113 -116 113 -258v-11q0 -113 -75 -214q-21 -26 -36 -41q34 -22 58 -45q140 -137 140 -329q0 -173 -132 -312 q-72 -68 -149 -98q-81 -30 -154 -30h-16q-150 0 -278 101q-66 60 -78 84q-68 97 -81 209q-2 31 -2 37z" />
<glyph unicode="4" horiz-adv-x="1101" d="M80 563v11q0 26 60 109q6 10 475 722q19 28 21 29h205v-2q-453 -687 -471 -717q-6 -13 -6 -18v-8q0 -23 31 -36q5 -2 26 -2h190q45 0 53 25q4 4 4 12v243q1 3 3 3h169q2 -1 2 -3v-280h170q3 -1 3 -3v-169q0 -2 -3 -2h-170v-394q0 -52 -57 -78q-17 -5 -26 -5h-7 q-52 0 -78 57q-6 18 -6 47v373h-486q-68 0 -92 45q-10 18 -10 41z" />
<glyph unicode="5" horiz-adv-x="1062" d="M80 433q0 70 56 93q16 5 22 5h15q42 0 71 -46q11 -20 11 -69q12 -78 48 -126q88 -116 221 -116h15q69 0 147 52q69 49 100 143q11 39 11 72q0 133 -108 220q-32 25 -80 42q-37 14 -122 14h-318l-3 1q171 713 173 717h543q2 0 2 -2q-37 -158 -40 -170l-3 -1h-317 q-45 0 -52 -25q-4 0 -22 -81q-52 -211 -52 -220v-4q0 -30 34 -40q6 -1 12 -1h37q136 0 196 -27q134 -48 218 -170q76 -113 76 -253q0 -148 -99 -277q-56 -63 -86 -81q-42 -31 -98 -53q-86 -30 -143 -30h-22q-190 0 -331 148q-58 71 -76 121q-36 86 -36 164z" />
<glyph unicode="6" horiz-adv-x="1035" d="M70 446q0 119 74 251l371 736h190q2 0 2 -2l-245 -490q-1 -5 -1 -11q0 -28 33 -39q11 -2 69 -5q99 -13 174 -57q35 -17 95 -73q62 -66 91 -136q36 -84 36 -168v-15q0 -163 -121 -298q-138 -139 -322 -139q-202 0 -344 160q-102 131 -102 286zM244 444q0 -144 132 -233 q69 -38 140 -38q131 0 221 116q49 72 49 155v9q0 86 -65 167q-44 47 -73 59q-62 37 -129 37h-9q-102 0 -189 -82q-51 -56 -64 -108q-13 -37 -13 -73v-9z" />
<glyph unicode="7" horiz-adv-x="1040" d="M100 1343v8q0 46 51 76q20 6 32 6h823q2 0 2 -3l-709 -1420q-5 -10 -7 -10h-191v1q0 3 488 977q112 223 113 231q1 4 1 10q-8 40 -40 40q-5 1 -18 1h-462q-47 0 -76 52q-7 20 -7 31z" />
<glyph unicode="8" horiz-adv-x="1027" d="M70 447q0 159 108 290q56 59 86 76q0 1 3 1v1q-67 72 -85 126q-26 68 -26 129v12q0 102 65 200q65 87 151 122q68 30 136 30h11q150 0 266 -122q40 -50 58 -91q31 -75 31 -139v-12q0 -137 -107 -251q-1 0 -4 -4v-1q121 -81 173 -226q24 -73 24 -143q0 -191 -148 -332 q-132 -113 -298 -113q-186 0 -324 141q-120 132 -120 306zM243 439q0 -73 49 -150q38 -50 82 -76q69 -40 135 -40h11q74 0 150 49q51 38 76 82q40 69 40 135v11q0 74 -49 150q-32 44 -76 74q-75 42 -141 42h-11q-73 0 -150 -49q-44 -33 -73 -76q-43 -75 -43 -141v-11z M329 1071q0 -78 71 -141q55 -40 110 -40h9q78 0 141 70q40 56 40 111v9q0 78 -70 141q-55 40 -111 40h-9q-78 0 -140 -71q-41 -55 -41 -110v-9z" />
<glyph unicode="9" horiz-adv-x="1032" d="M80 985v16q0 134 94 263q67 76 97 90q85 60 183 73q0 4 60 6h15q191 0 334 -155q105 -133 105 -278v-32q0 -101 -82 -249l-362 -719h-192v1q1 4 245 490q1 10 1 12q0 29 -34 41q-164 0 -276 82q-65 44 -116 119q-72 114 -72 240zM253 980q0 -102 87 -190q84 -72 175 -72 h18q102 0 190 87q72 84 72 175v18q0 103 -87 190q-84 72 -175 72h-18q-103 0 -190 -87q-72 -84 -72 -175v-18z" />
<glyph unicode=":" horiz-adv-x="410" d="M100 107q0 35 24 69q37 38 79 38h10q52 0 88 -52q14 -27 14 -51v-8q0 -51 -49 -86q-27 -17 -53 -17h-10q-51 0 -87 50q-16 31 -16 57zM100 872q0 34 24 67q35 40 81 40h6q51 0 87 -48q17 -27 17 -54v-11q0 -49 -48 -84q-29 -18 -56 -18h-7q-49 0 -85 46q-19 31 -19 62z " />
<glyph unicode=";" horiz-adv-x="415" d="M45 -217q0 11 54 334q14 40 47 62q28 15 51 15h12q48 0 84 -45q18 -28 18 -61v-9q0 -33 -45 -96q-117 -187 -146 -230q-16 -12 -30 -12q-34 0 -44 33q-1 5 -1 8v1zM96 869v9q0 61 64 96q24 8 40 8h5q56 0 92 -52q14 -25 14 -52v-9q0 -46 -43 -81q-28 -21 -65 -21 q-67 0 -100 68q-7 18 -7 34z" />
<glyph unicode="&#x37e;" horiz-adv-x="415" d="M45 -217q0 11 54 334q14 40 47 62q28 15 51 15h12q48 0 84 -45q18 -28 18 -61v-9q0 -33 -45 -96q-117 -187 -146 -230q-16 -12 -30 -12q-34 0 -44 33q-1 5 -1 8v1zM96 869v9q0 61 64 96q24 8 40 8h5q56 0 92 -52q14 -25 14 -52v-9q0 -46 -43 -81q-28 -21 -65 -21 q-67 0 -100 68q-7 18 -7 34z" />
<glyph unicode="&#x3c;" d="M87 674v83l840 484v-167l-625 -359l625 -355v-167z" />
<glyph unicode="=" horiz-adv-x="887" d="M100 547q0 58 63 82q9 2 15 2h533q44 0 72 -51q6 -16 6 -29v-11q0 -44 -46 -72q-15 -10 -63 -10h-473q-71 0 -92 39q-15 20 -15 50zM100 891q0 62 69 84q9 2 14 2h523q54 0 79 -59q4 -12 4 -22v-12q0 -50 -56 -76q-17 -6 -47 -6h-483q-83 0 -102 69q-1 13 -1 20z" />
<glyph unicode="&#x3e;" d="M87 193v167l625 355l-625 359v167l840 -484v-83z" />
<glyph unicode="?" horiz-adv-x="776" d="M38 1260q0 45 56 85q112 89 244 89q171 0 292 -122q74 -74 101 -196q7 -33 7 -65v-34q0 -81 -55 -184q-21 -37 -83 -97q-104 -80 -201 -89v-1q-12 -303 -16 -324q-15 -25 -36 -25h-7q-27 0 -38 32q-3 0 -21 492q1 0 1 1q31 -8 55 -8h13q71 0 139 53q79 73 79 169 q0 109 -91 183q-65 43 -123 43h-10q-95 0 -169 -73q-26 -17 -52 -17q-57 0 -81 60q-4 15 -4 28zM237 106q0 65 65 99q21 7 33 7h17q38 0 74 -38q24 -31 24 -70q0 -68 -72 -99q-17 -5 -30 -5h-10q-60 0 -93 64q-8 20 -8 42z" />
<glyph unicode="@" horiz-adv-x="2019" d="M80 506q0 280 161 526q167 243 456 349q147 54 315 54q302 0 567 -195l68 -61q97 -98 125 -149q63 -95 94 -172q66 -180 66 -312v-65q0 -191 -104 -401q-31 -62 -66 -103q-85 -82 -201 -82q-126 0 -215 111q-37 56 -43 95q-138 -95 -296 -95q-228 0 -387 181 q-115 141 -115 321v25q0 132 99 278q78 94 139 127q129 74 251 74h20q192 0 350 -147q18 -23 43 -23q14 0 62 26l11 2h24q25 0 53 -32q15 -23 15 -41q0 -27 -94 -495q-23 -119 -23 -129v-13q0 -61 74 -98q17 -6 35 -6h9q68 0 110 97q89 165 89 357q0 271 -182 495 q-99 105 -160 141q-196 128 -420 128h-21q-214 0 -425 -140q-158 -123 -224 -251q-99 -180 -99 -370v-19q0 -181 108 -377q146 -239 423 -337q120 -36 217 -36h27q132 0 278 54q15 2 23 2q43 0 70 -52q4 -16 4 -23v-15q0 -27 -35 -57q-158 -70 -360 -70q-336 0 -617 244 q-101 100 -139 163q-160 244 -160 516zM664 506q0 -109 81 -217q80 -80 126 -91q29 -16 79 -25q29 -6 48 -6h18q86 0 179 58q97 63 140 188q13 52 13 86v20q0 136 -119 249q-106 83 -213 83h-18q-118 0 -230 -97q-104 -112 -104 -248z" />
<glyph unicode="A" horiz-adv-x="1321" d="M20 80q0 20 33 90q524 1193 539 1223q26 40 69 40q58 0 82 -70q25 -53 500 -1136q52 -112 58 -137v-12q0 -50 -55 -73q-16 -5 -26 -5q-59 0 -88 84q-117 266 -127 286q-26 39 -69 39h-550q-63 0 -88 -80q-9 -18 -126 -284q-27 -45 -73 -45q-44 0 -72 48q-6 17 -7 32z M424 606q0 -27 31 -37h405q31 0 38 37q0 13 -38 94q-160 367 -168 381q-14 16 -32 16q-31 0 -47 -53q-187 -420 -189 -431v-7z" />
<glyph unicode="B" horiz-adv-x="1237" d="M100 83v1268q0 44 48 74q21 9 35 9h527q156 0 274 -116q57 -64 79 -123q27 -73 27 -133q0 -167 -124 -287q-10 -13 -10 -26q0 -32 46 -52q103 -68 149 -185q25 -70 25 -137q0 -100 -59 -199q-72 -112 -197 -155q-59 -21 -124 -21h-613q-44 0 -74 48q-9 21 -9 35z M273 1212v-360q0 -49 49 -49h404q29 0 90 35q55 42 70 74q34 55 34 113v14q0 77 -58 147q-49 49 -77 56q-40 19 -59 19h-404q-49 0 -49 -49zM273 222q0 -49 53 -49h486q35 2 92 36q102 76 102 194q0 102 -84 179q-62 45 -110 48h-490q-49 0 -49 -48v-360z" />
<glyph unicode="C" horiz-adv-x="1301" d="M20 708v19q0 180 101 359q31 48 69 95q61 67 103 100q63 47 111 71q164 83 330 83q235 0 436 -145q35 -28 35 -71q0 -40 -37 -70q-27 -18 -53 -18q-31 0 -58 26q-96 72 -239 98q-32 6 -68 6h-23q-157 0 -303 -99q-34 -22 -88 -77q-143 -162 -143 -369q0 -190 127 -347 q61 -68 90 -85q150 -110 317 -110h23q140 0 284 88l48 35q17 5 33 7q49 0 79 -48q8 -15 11 -39q0 -50 -44 -77q-195 -140 -427 -140q-194 0 -378 109q-197 129 -281 335q-55 134 -55 264z" />
<glyph unicode="D" horiz-adv-x="1274" d="M100 101v1232q0 71 54 94q17 7 47 7h215q167 0 264 -36q228 -75 370 -274q56 -91 68 -128q58 -132 58 -280q0 -260 -176 -470q-56 -61 -105 -98q-83 -59 -143 -85q-69 -31 -143 -46q-62 -17 -194 -17h-214q-71 0 -94 54q-7 17 -7 47zM274 1173v-912q0 -53 48 -78 q15 -9 39 -9h91q254 0 425 196q95 117 119 264q6 44 6 72v22q0 164 -109 316q-52 67 -113 111q-144 105 -328 105h-91q-54 0 -80 -50q-7 -15 -7 -37z" />
<glyph unicode="E" horiz-adv-x="1089" d="M100 103v1229q0 54 25 76q22 27 80 27h686q74 0 95 -49q10 -19 10 -38q0 -52 -54 -80q-19 -7 -51 -7h-530q-61 0 -83 -60q-5 -10 -5 -46v-245q0 -56 21 -75q25 -30 67 -30h530q74 0 95 -49q10 -19 10 -38q0 -53 -54 -81q-19 -7 -51 -7h-530q-61 0 -83 -60q-5 -10 -5 -45 v-245q0 -57 21 -75q25 -31 67 -31h530q74 0 95 -48q10 -19 10 -39q0 -52 -54 -80q-19 -7 -51 -7h-686q-55 0 -77 24q-28 22 -28 79z" />
<glyph unicode="F" horiz-adv-x="1091" d="M100 102v1231q0 101 101 101h695q83 0 98 -70l3 -16q0 -56 -59 -83q-18 -4 -42 -4h-517q-56 0 -75 -21q-31 -26 -31 -68v-282q0 -60 62 -83q13 -3 25 -3h352q75 0 95 -49q11 -19 11 -39q0 -53 -57 -81q-19 -5 -26 -5h-356q-56 0 -75 -20q-31 -26 -31 -68v-440 q0 -72 -48 -93q-18 -9 -34 -9h-8q-43 0 -72 44q-11 18 -11 58z" />
<glyph unicode="G" horiz-adv-x="1345" d="M20 722q0 243 160 448q63 75 110 109q200 157 453 157q239 0 443 -157q20 -27 20 -58q0 -62 -68 -85q-11 -3 -18 -3h-7q-16 0 -35 10q-153 119 -333 119h-8q-230 0 -400 -176q-143 -163 -143 -367q0 -234 180 -407q101 -86 216 -118q76 -20 137 -20h26q133 0 276 83 q43 30 43 76v125q0 58 -58 82q-12 4 -28 4h-230q-73 0 -95 51q-6 7 -10 36q0 52 53 80q17 8 52 8h386q77 0 98 -56q6 -15 6 -28v-392q0 -45 -65 -89q-199 -154 -444 -154q-150 0 -295 63q-268 126 -376 402q-46 125 -46 257z" />
<glyph unicode="H" horiz-adv-x="1279" d="M100 101v1233q0 70 50 92q16 9 39 9q53 0 80 -58q5 -14 5 -43v-443q0 -60 61 -83q8 -4 18 -4h572q41 0 69 45q10 18 10 34v451q0 70 50 92q16 9 38 9q54 0 80 -58q6 -14 6 -43v-1233q0 -70 -51 -92q-16 -9 -38 -9q-53 0 -80 58q-5 14 -5 43v451q0 38 -42 67 q-20 12 -45 12h-556q-62 0 -85 -66q-2 -13 -2 -22v-442q0 -70 -50 -92q-16 -9 -39 -9q-53 0 -80 58q-5 14 -5 43z" />
<glyph unicode="I" horiz-adv-x="370" d="M100 102v1231q0 61 34 83q25 19 53 19q51 0 80 -54q6 -17 6 -48v-1231q0 -61 -34 -83q-24 -19 -52 -19q-51 0 -80 53q-7 17 -7 49z" />
<glyph unicode="J" horiz-adv-x="1094" d="M100 441v11q0 49 53 77q17 5 25 5h17q32 0 61 -35q19 -21 19 -85q9 -49 26 -86q16 -37 67 -88q26 -22 72 -45q56 -21 101 -21h16q87 0 170 65q50 48 59 70q38 69 38 131v891q0 75 51 97q18 7 28 7h17q37 0 66 -42q11 -22 11 -40v-909q0 -151 -101 -281q-57 -63 -94 -85 q-120 -78 -240 -78h-27q-114 0 -234 73q-35 22 -82 71q-59 66 -81 125q-38 88 -38 172z" />
<glyph unicode="K" horiz-adv-x="1223" d="M100 102v1232q0 70 51 92q17 8 35 8q49 0 77 -47q10 -19 10 -53v-512q0 -60 59 -83q15 -5 26 -5q47 0 92 59q578 611 586 618q26 18 56 18q50 0 77 -53q7 -16 7 -35q0 -42 -53 -89q-13 -15 -379 -402q-117 -120 -117 -131q-8 -14 -8 -35v-6q0 -41 56 -85l474 -449 q22 -30 22 -56q0 -63 -67 -86q-9 -2 -21 -2q-40 0 -82 45l-475 450q-27 23 -61 23q-30 0 -60 -27q-124 -127 -124 -137q-8 -18 -8 -38v-214q0 -52 -24 -75q-29 -27 -58 -27h-8q-36 0 -65 34q-18 22 -18 68z" />
<glyph unicode="L" horiz-adv-x="1220" d="M100 105v1225q0 73 53 96q19 7 34 7q54 0 80 -53q7 -17 7 -30v-1072q0 -60 26 -79q23 -25 62 -25h714q68 0 92 -52q8 -25 8 -36q0 -42 -40 -72q-19 -14 -60 -14h-873q-71 0 -92 48q-11 15 -11 57z" />
<glyph unicode="M" horiz-adv-x="1510" d="M102 77v1280q0 47 50 71q9 3 31 6q45 0 85 -65l424 -557q28 -30 55 -30h13q40 0 79 63l432 566q24 20 52 23q53 0 77 -51q5 -14 5 -26v-1280q0 -42 -42 -68q-18 -9 -34 -9h-4q-42 0 -68 42q-9 19 -9 35v929q0 27 -27 37l-8 2h-7q-22 0 -55 -53q-336 -440 -345 -450 q-24 -17 -45 -20h-15q-26 0 -55 31l-367 483q-13 9 -22 9h-8q-27 0 -35 -36v-932q0 -42 -42 -68q-18 -9 -34 -9h-4q-42 0 -68 42q-9 19 -9 35z" />
<glyph unicode="N" horiz-adv-x="1187" d="M100 94v1247q0 67 47 86q13 8 37 8q49 0 86 -72q15 -21 582 -891q44 -67 53 -76q8 -2 10 -2q11 0 18 13v934q0 61 41 83q17 11 40 11q56 0 78 -62q2 -15 2 -32v-1247q0 -67 -47 -86q-13 -8 -37 -8q-49 0 -88 74l-585 895q-44 67 -46 68q-4 3 -10 3h-4q-16 -4 -16 -19 v-927q0 -61 -41 -83q-17 -11 -40 -11q-55 0 -78 62q-2 15 -2 32z" />
<glyph unicode="O" horiz-adv-x="1476" d="M20 709q0 304 224 527l45 39q138 107 294 140q83 17 152 17q252 0 461 -168q74 -67 103 -106q153 -200 153 -449q0 -193 -115 -381q-28 -48 -102 -126q-95 -85 -169 -121q-162 -81 -331 -81q-198 0 -383 112q-212 137 -296 381q-36 120 -36 216zM195 709q0 -184 127 -344 q76 -80 99 -89q145 -101 304 -101h22q178 0 339 126q85 80 109 127q82 136 82 281v14q0 184 -127 344q-76 80 -99 89q-145 101 -304 101h-22q-178 0 -339 -126q-85 -80 -109 -127q-82 -136 -82 -281v-14z" />
<glyph unicode="P" horiz-adv-x="1210" d="M100 78v1276q0 44 48 71q16 8 48 8h428q128 0 202 -32q171 -69 250 -239q38 -93 38 -181q0 -173 -126 -312q-77 -71 -121 -88q-45 -26 -114 -40q-42 -10 -82 -10h-324q-60 0 -82 -61q-2 -13 -2 -22v-370q0 -47 -53 -74q-17 -4 -25 -4h-7q-47 0 -74 53q-4 17 -4 25z M263 778q0 -60 61 -82q13 -2 23 -2h311q158 0 250 138q42 73 42 140v19q0 103 -85 195q-88 83 -207 83h-311q-60 0 -82 -61q-2 -13 -2 -23v-407z" />
<glyph unicode="Q" horiz-adv-x="1493" d="M20 718q0 285 208 505q86 81 133 105q174 107 377 107q217 0 407 -128q35 -19 115 -99q100 -110 145 -231q49 -126 49 -262q0 -239 -152 -439q139 -136 139 -146q13 -19 13 -44q0 -53 -55 -79q-20 -7 -32 -7q-45 0 -95 61l-93 91h-1q-199 -152 -444 -152q-238 0 -442 155 q-91 77 -129 133q-143 197 -143 430zM194 728v-27q0 -160 114 -318q55 -65 99 -98q152 -111 331 -111q171 0 317 103q-393 390 -393 396q-12 26 -12 45q0 46 46 76q23 10 42 10q45 0 95 -61l345 -343h1q101 150 101 307v11q0 208 -147 372q-169 171 -400 171 q-213 0 -383 -161q-103 -104 -143 -260q-13 -58 -13 -112z" />
<glyph unicode="R" horiz-adv-x="1200" d="M100 96v1243q0 96 96 96h452q117 0 227 -81q57 -49 77 -81q69 -104 69 -217q0 -131 -87 -242q-49 -55 -78 -71q-31 -23 -82 -44q-20 -14 -20 -36q0 -15 40 -73l299 -473q8 -21 8 -33q0 -60 -61 -82q-12 -2 -18 -2q-54 0 -80 53q-1 1 -386 606q-12 17 -46 17h-146 q-57 0 -76 -23q-24 -24 -24 -59v-498q0 -67 -47 -88q-19 -8 -32 -8h-6q-43 0 -70 45q-9 18 -9 51zM264 923q0 -65 68 -82q7 -1 15 -1h290q126 0 195 113q24 50 24 97v10q0 80 -61 146q-65 65 -158 65h-290q-66 0 -82 -68q-1 -7 -1 -16v-264z" />
<glyph unicode="S" horiz-adv-x="1055" d="M100 348q0 52 54 81q14 5 33 7q50 0 80 -49q30 -104 91 -152q77 -59 158 -59h16q102 0 185 85q68 78 68 175q0 107 -82 188q-52 46 -103 61q-190 72 -233 90q-35 18 -81 58q-63 67 -79 113q-30 71 -30 139q0 133 96 242q110 108 259 108q75 0 161 -43q36 -18 84 -64 q57 -63 75 -120q7 -15 7 -36q0 -57 -60 -83q-17 -4 -27 -4q-38 0 -68 33q-7 10 -32 63q-57 78 -148 78q-80 0 -139 -71q-32 -51 -32 -100q0 -109 106 -162q214 -80 270 -106q47 -24 110 -84q60 -69 74 -107q47 -94 47 -188q0 -157 -99 -282q-44 -50 -76 -73 q-120 -86 -259 -86q-194 0 -331 151q-72 85 -94 186q0 11 -1 11z" />
<glyph unicode="T" horiz-adv-x="1278" d="M14 1348q0 60 64 83q11 4 37 4h1046q74 0 96 -57q5 -17 5 -30q0 -60 -64 -83q-11 -4 -37 -4h-350q-58 0 -82 -60q-4 -10 -4 -18v-1078q0 -77 -56 -99q-20 -6 -32 -6q-50 0 -78 52q-8 18 -8 53v1070q0 56 -56 80q-13 6 -31 6h-349q-74 0 -96 57q-5 17 -5 30z" />
<glyph unicode="U" horiz-adv-x="1267" d="M100 529v822q0 45 48 74q20 9 38 9q54 0 80 -54q7 -16 7 -29v-774q0 -111 23 -165q54 -139 184 -202q73 -36 153 -36h10q134 0 245 99q77 71 106 188q8 38 8 67v803q0 73 54 96q18 7 34 7q53 0 79 -54q7 -16 7 -29v-822q0 -139 -82 -277q-91 -146 -259 -215 q-99 -37 -188 -37h-18q-139 0 -277 82q-146 91 -215 260q-37 98 -37 187z" />
<glyph unicode="V" horiz-adv-x="1200" d="M40 1355q0 25 25 55q28 23 56 23q54 0 79 -58l364 -969q15 -18 30 -18h8q28 0 42 51q1 0 355 944q14 28 38 40q10 7 34 10q61 0 83 -65q1 -13 1 -19q0 -19 -38 -114l-433 -1154q-12 -37 -24 -53q-28 -28 -60 -28h-5q-41 0 -68 41l-420 1117q-66 170 -66 184q0 9 -1 13z " />
<glyph unicode="W" horiz-adv-x="1569" d="M50 1352q0 45 50 73q13 4 34 7q44 0 72 -47q7 -15 159 -630q1 -2 85 -337q13 -27 34 -27h8q27 0 50 59q178 353 181 356q28 32 64 32q60 0 90 -81l177 -352q15 -14 28 -14h8q34 0 44 71l233 920q14 28 38 41q9 5 34 9q61 0 82 -63q2 -13 3 -16q0 -20 -62 -258l-261 -1043 q-25 -52 -77 -52q-60 0 -92 84q-212 423 -215 426q-15 13 -26 13h-8q-27 0 -48 -56l-216 -428q-26 -39 -72 -39q-53 0 -76 59l-313 1255q-5 12 -8 38z" />
<glyph unicode="X" horiz-adv-x="1284" d="M80 86q0 36 48 93q381 507 388 518q4 8 4 17v5q0 17 -33 56l-392 524q-15 26 -15 47q0 61 66 85q9 2 21 2q52 0 93 -66l346 -461q16 -16 34 -16q27 0 51 40q1 0 357 475q28 28 65 28q56 0 82 -61q3 -14 3 -25q0 -38 -44 -88l-390 -522q-5 -11 -5 -18v-5q0 -18 38 -63 q381 -507 387 -518q14 -22 14 -49q0 -55 -61 -81q-13 -3 -24 -3h-2q-51 0 -88 62l-352 467q-14 14 -32 14q-27 0 -57 -48l-347 -462q-30 -33 -68 -33q-61 0 -85 66q-1 19 -2 20z" />
<glyph unicode="Y" horiz-adv-x="1198" d="M30 1349q0 34 32 65q29 20 53 20q57 0 94 -70l353 -527q16 -16 35 -16q29 0 57 52l352 524q29 37 70 37q43 0 74 -42q12 -28 12 -42q0 -24 -15 -51q0 -3 -440 -658q-24 -30 -24 -55v-481q0 -73 -49 -95q0 -4 -39 -10q-47 0 -77 50q-9 20 -9 55v481q0 26 -26 59l-438 654 q-15 27 -15 50z" />
<glyph unicode="Z" horiz-adv-x="1278" d="M80 90q0 32 42 82l769 1025q5 12 5 23q0 28 -34 40q-12 1 -22 1h-659q-69 0 -91 47q-10 18 -10 41q0 54 59 81q16 4 42 4h916q58 0 81 -32q21 -26 21 -54q0 -35 -37 -78q-733 -977 -735 -981q-44 -52 -44 -70v-6q0 -27 32 -39q5 -1 11 -1h672q75 0 95 -59q6 -17 6 -28 q0 -39 -37 -70q-22 -16 -64 -16h-917q-56 0 -78 29q-23 23 -23 61z" />
<glyph unicode="^" />
<glyph unicode="_" horiz-adv-x="887" d="M100 -180q0 48 52 76q16 7 54 7h476q58 0 76 -19q32 -28 32 -60v-17q0 -39 -47 -69q-21 -8 -31 -8h-532q-45 0 -72 49q-8 18 -8 33v8z" />
<glyph unicode="`" horiz-adv-x="1024" />
<glyph unicode="a" horiz-adv-x="1035" d="M90 333v11q0 131 101 239q108 96 232 96h283q37 0 47 19q8 10 8 22v4q-3 29 -37 70q-37 36 -63 44q-25 13 -90 13h-227q-35 0 -64 33q-18 25 -18 48v7q0 42 38 70q23 14 44 14h258q120 0 222 -84q51 -49 66 -78q52 -86 52 -178v-599q0 -41 -40 -71q-24 -13 -45 -13 q-56 0 -81 53q-13 36 -45 36q-14 0 -60 -29q-39 -21 -89 -37q-81 -23 -143 -23h-13q-134 0 -240 103q-45 51 -60 84q-36 76 -36 146zM262 339q0 -69 58 -125q52 -41 102 -41h17q85 0 173 53q98 62 140 179q9 35 13 56v5q0 25 -29 39q-7 1 -11 1h-303q-60 0 -115 -53 q-45 -53 -45 -114z" />
<glyph unicode="b" horiz-adv-x="1220" d="M100 83v1268q0 44 49 74q21 8 33 8h8q42 0 71 -44q12 -19 12 -60v-354q0 -23 32 -36q10 -1 11 -1q13 0 71 34q112 51 218 51h17q136 0 270 -83q146 -96 204 -264q27 -82 27 -162v-6q0 -181 -126 -333q-70 -72 -93 -83q-134 -92 -291 -92q-150 0 -282 83q-10 6 -20 6h-3 q-32 0 -49 -49q-30 -40 -74 -40t-75 45q-10 25 -10 38zM273 505q0 -137 113 -246q103 -86 219 -86h13q123 0 227 93q105 106 105 239v8q0 136 -100 239q-68 63 -127 79q-54 19 -103 19h-17q-119 0 -223 -91q-107 -105 -107 -246v-8z" />
<glyph unicode="c" horiz-adv-x="989" d="M60 512q0 166 104 309q18 25 67 73q55 47 104 72q115 58 236 58q159 0 292 -91q30 -27 30 -68q0 -45 -45 -73q-24 -11 -40 -11q-31 0 -74 29q-75 41 -164 41h-6q-78 0 -162 -46q-109 -66 -151 -184q-18 -55 -18 -110q0 -141 110 -249q68 -58 136 -76q48 -13 85 -13h8 q102 0 191 58q23 12 45 12q40 0 71 -39q14 -24 14 -47q0 -54 -55 -83q-122 -74 -270 -74q-165 0 -311 108q-32 25 -72 70q-44 52 -58 82q-67 119 -67 252z" />
<glyph unicode="d" horiz-adv-x="1181" d="M60 517q0 154 95 294q71 91 129 124q57 43 152 72q72 18 140 18q141 0 275 -82q12 -4 17 -4q29 0 42 32q1 8 1 12v349q0 72 53 96q20 7 31 7h7q47 0 76 -52q7 -20 7 -31v-1269q0 -50 -55 -77q-18 -6 -33 -6q-52 0 -79 55q-13 34 -42 34h-2q-14 0 -34 -13 q-127 -76 -259 -76h-15q-153 0 -293 96q-75 55 -121 124q-92 133 -92 297zM234 518v-11q0 -136 109 -245q104 -88 220 -88h18q113 0 214 83q45 42 62 71q54 87 54 179v11q0 135 -109 244q-104 89 -221 89h-18q-112 0 -214 -83q-44 -42 -61 -72q-54 -86 -54 -178z" />
<glyph unicode="e" horiz-adv-x="1100" d="M40 510q0 184 122 335q57 60 83 77q142 103 308 103q213 0 374 -161q58 -64 58 -96q0 -7 1 -11q0 -32 -29 -62q-16 -13 -496 -354q0 -1 -81 -59q-12 -14 -12 -28v-6q0 -19 21 -33q81 -41 153 -41h20q115 0 218 86q56 57 66 82q17 27 33 75q10 49 28 68q30 27 61 27 q60 0 83 -57q5 -12 5 -27v-3q-1 -39 -37 -127q-21 -48 -69 -110q-50 -57 -88 -84q-65 -47 -115 -65q-96 -39 -184 -39h-16q-155 0 -298 99q-69 53 -113 115q-33 49 -52 90q-44 109 -44 206zM214 514q0 -70 17 -83q13 -12 32 -12q15 0 56 34q5 2 403 286q15 14 15 32v6 q0 18 -20 32q-81 42 -153 42h-20q-117 0 -224 -91q-106 -108 -106 -246z" />
<glyph unicode="f" horiz-adv-x="690" d="M100 102v891q0 121 34 193q61 137 200 207q88 40 185 40q21 0 53 -25q25 -29 25 -61q0 -58 -63 -83q-14 -3 -68 -8q-24 -3 -73 -28q-119 -74 -119 -211v-177q0 -22 32 -36h189q62 0 84 -36q18 -25 18 -51q0 -49 -49 -78q-18 -9 -53 -9h-134q-64 0 -85 -65q-2 -5 -2 -14 v-449q0 -62 -37 -84q-24 -18 -50 -18q-49 0 -78 49q-9 18 -9 53z" />
<glyph unicode="g" horiz-adv-x="1191" d="M70 500v18q0 97 46 204q18 43 67 109q61 69 107 99q140 92 287 92h16q126 0 255 -73q23 -17 40 -17q32 0 46 45q30 46 78 46q33 0 63 -29q23 -22 23 -74v-830q0 -135 -79 -267q-21 -36 -82 -98q-63 -59 -133 -92q-111 -49 -212 -49h-5q-2 0 -4 -1q-41 0 -71 40 q-15 26 -15 47q0 45 43 75q21 13 77 13q41 6 81 19q131 51 190 168q36 73 36 150v25q0 2 -3 2q-93 -82 -214 -112q-64 -15 -120 -15q-230 0 -394 179q-91 109 -116 249q-7 53 -7 77zM244 515v-13q0 -132 104 -240q59 -49 102 -67q68 -27 135 -27q148 0 257 119 q82 100 82 215v13q0 131 -105 240q-58 49 -101 66q-68 28 -135 28q-148 0 -257 -119q-82 -100 -82 -215z" />
<glyph unicode="h" horiz-adv-x="1086" d="M100 104v1228q0 71 52 94q18 8 32 8h7q45 0 75 -49q8 -21 8 -33v-341q0 -31 31 -42q5 -1 9 -1h2q15 0 63 24q84 32 165 32q167 0 299 -115q62 -61 76 -90q46 -70 61 -149q11 -40 11 -128v-442q0 -70 -53 -93q-19 -7 -31 -7h-6q-48 0 -76 52q-8 16 -8 48v474 q0 115 -78 196q-84 81 -195 81q-117 0 -204 -94q-66 -77 -66 -183v-492q0 -37 -38 -67q-23 -15 -45 -15h-7q-42 0 -72 44q-12 19 -12 60z" />
<glyph unicode="i" horiz-adv-x="373" d="M80 1254v9q0 68 72 99q18 6 32 6h6q59 0 93 -59q11 -21 11 -45v-10q0 -57 -61 -92q-22 -10 -46 -10q-68 0 -100 68q-7 18 -7 34zM100 103v817q0 68 41 90q19 13 39 13h14q34 0 63 -34q16 -25 16 -47v-859q0 -47 -51 -76q-20 -7 -31 -7h-8q-42 0 -71 44q-12 19 -12 59z " />
<glyph unicode="j" horiz-adv-x="380" d="M-136 -296q0 44 32 53q60 14 87 31q76 44 107 128q14 33 14 119v905q0 52 57 78q12 5 21 5h17q41 0 69 -47q10 -20 10 -35v-896q0 -148 -32 -208q-19 -57 -79 -124q-64 -64 -115 -87q-91 -43 -174 -43h-11q-3 0 -3 3v118zM83 1261q0 59 53 93q25 14 46 14h17q56 0 93 -66 q7 -22 7 -45q0 -62 -65 -96q-25 -9 -44 -9q-60 0 -97 61q-10 25 -10 48z" />
<glyph unicode="k" horiz-adv-x="1010" d="M100 100v1232q0 74 59 95q17 5 28 5q40 0 70 -37q16 -22 16 -63v-647q0 -61 61 -84q11 -3 22 -3h7q41 0 87 58q325 343 333 350q29 17 52 17q50 0 79 -52q8 -23 8 -35q0 -37 -37 -72l-304 -322q-17 -22 -17 -51v-5q0 -32 30 -62q291 -274 301 -286q17 -27 17 -52 q0 -49 -52 -78q-23 -8 -35 -8q-43 0 -90 54l-301 283q-12 5 -21 5h-4q-23 0 -56 -42q-79 -79 -79 -90q-1 -7 -1 -12v-98q0 -74 -59 -95q-17 -5 -28 -5q-39 0 -70 37q-16 22 -16 63z" />
<glyph unicode="l" horiz-adv-x="357" d="M100 94v1246q0 66 48 86q9 6 32 8q50 0 75 -54q4 -17 4 -40v-1246q0 -66 -47 -87q-10 -5 -32 -7q-50 0 -76 54q-4 16 -4 40z" />
<glyph unicode="m" horiz-adv-x="1615" d="M100 102v820q0 63 35 84q21 17 50 17q46 0 74 -42q15 -19 36 -19q10 0 66 25q69 23 137 23q139 0 255 -93q32 -33 50 -33h4q19 0 66 46q110 80 246 80q145 0 267 -106q65 -68 80 -105q44 -90 44 -151v-565q0 -50 -53 -76q-9 -5 -31 -7q-51 0 -78 52q-8 19 -8 50v547 q-4 49 -46 105q-72 87 -180 87q-99 0 -173 -81q-24 -31 -39 -66q-11 -35 -11 -45v-547q0 -72 -52 -94q-10 -5 -33 -8q-52 0 -79 52q-8 19 -8 50v550q0 35 -40 97q-75 92 -184 92q-114 0 -189 -101q-33 -54 -35 -93v-545q0 -74 -52 -94q-16 -7 -34 -8q-45 0 -75 45 q-10 20 -10 57z" />
<glyph unicode="n" horiz-adv-x="1088" d="M100 101v822q0 52 25 74q28 27 61 27q43 0 72 -39q17 -27 43 -27q11 0 47 20q95 46 195 46q198 0 339 -154q51 -65 68 -109q40 -79 40 -208v-452q0 -61 -34 -82q-23 -19 -54 -19q-33 0 -62 28q-23 22 -23 73v448q0 96 -25 143q-48 102 -157 144q-48 15 -90 15 q-118 0 -204 -92q-47 -54 -62 -127q-6 -26 -6 -83v-448q0 -61 -34 -82q-22 -19 -54 -19q-33 0 -62 28q-23 22 -23 73z" />
<glyph unicode="o" horiz-adv-x="1123" d="M50 513q0 190 132 343q68 69 98 84q134 85 274 85h17q158 0 307 -108q68 -57 95 -98q102 -140 102 -307q0 -202 -147 -360q-79 -75 -150 -104q-107 -48 -207 -48h-17q-160 0 -308 109q-55 45 -86 87q-110 142 -110 317zM224 505q0 -129 102 -237q106 -94 230 -94h13 q138 0 247 112q85 103 85 219v7q0 143 -105 247q-58 52 -119 73q-58 19 -105 19h-19q-84 0 -172 -52q-30 -18 -75 -64q-53 -67 -66 -119q-16 -43 -16 -104v-7z" />
<glyph unicode="p" horiz-adv-x="1222" d="M100 -316v1237q0 71 52 95q20 7 38 7q40 0 71 -41q19 -44 31 -44q0 -3 16 -4h4q17 0 73 34q116 55 232 55q149 0 287 -89q90 -64 141 -145q84 -132 84 -277v-5q0 -175 -115 -322q-63 -72 -90 -87q-55 -42 -122 -68q-99 -36 -179 -36q-153 0 -282 80q-14 6 -19 6h-7 q-40 -7 -40 -43v-353q0 -68 -47 -90q-19 -12 -40 -12q-57 0 -83 60q-5 15 -5 42zM275 510q0 -133 93 -236q107 -105 241 -105h12q130 0 235 99q99 104 99 243q0 149 -124 261q-75 57 -157 71q-29 5 -47 5h-24q-85 0 -178 -57q-93 -62 -135 -181q-15 -55 -15 -100z" />
<glyph unicode="q" horiz-adv-x="1221" d="M90 506v7q0 191 138 347q67 68 127 99q122 65 247 65q150 0 290 -87q11 -2 15 -2h4q31 0 48 48q32 41 69 41q63 0 86 -60q6 -12 6 -45v-1231q0 -75 -53 -98q-18 -7 -32 -7h-6q-50 0 -77 55q-7 19 -7 50v350q-7 42 -41 42h-7q-9 0 -71 -36q-112 -50 -229 -50 q-105 0 -226 56q-51 26 -108 74q-79 78 -95 114q-78 126 -78 268zM264 500q0 -131 108 -241q104 -91 234 -91q143 0 252 113q87 103 87 219v18q0 131 -108 241q-105 91 -234 91q-143 0 -252 -113q-87 -103 -87 -219v-18z" />
<glyph unicode="r" horiz-adv-x="753" d="M100 99v826q0 53 29 75q25 24 59 24q35 0 68 -34q12 -7 24 -7h3q11 0 47 17q66 24 130 24q126 0 234 -87q18 -18 18 -19q-98 -100 -102 -100q-11 -7 -22 -7q-16 0 -45 20q-40 20 -86 20q-76 0 -135 -61q-49 -55 -49 -128v-563q0 -56 -31 -78q-24 -21 -51 -21h-9 q-14 0 -35 9q-28 15 -42 49q-5 13 -5 41z" />
<glyph unicode="s" horiz-adv-x="801" d="M100 226v2q0 38 37 68q25 15 48 15q48 0 76 -44q14 -28 26 -44q46 -50 106 -50q67 0 112 55q27 39 27 84q0 81 -89 132q-187 125 -203 137q-94 79 -94 198q0 93 71 171q78 75 180 75q65 0 130 -38q92 -63 92 -127q0 -45 -45 -74q-21 -11 -44 -11q-34 0 -65 32 q-27 44 -68 44h-4q-45 0 -68 -47q-6 -16 -6 -29q0 -46 53 -75q194 -129 217 -147q36 -31 51 -51q65 -89 65 -186q0 -157 -127 -256q-85 -60 -186 -60q-96 0 -182 60q-56 43 -83 90q-27 46 -27 76z" />
<glyph unicode="t" horiz-adv-x="624" d="M100 244v1088q0 60 33 82q23 20 50 20h8q43 0 72 -45q11 -17 11 -57v-265q0 -32 36 -42h219q2 0 2 -2v-134q-4 -19 -20 -31q-12 -7 -35 -7h-114q-55 0 -81 -50q-7 -18 -7 -30v-518q0 -43 49 -72q19 -7 30 -7h69q3 0 3 -2v-170q0 -2 -3 -2h-82q-85 0 -129 28 q-67 34 -100 122q-11 32 -11 94z" />
<glyph unicode="u" horiz-adv-x="1084" d="M100 473v449q0 60 35 83q23 18 52 18q34 0 63 -29q23 -23 23 -69v-449q0 -99 26 -145q10 -29 55 -80q30 -26 31 -26q74 -51 152 -51h15q87 0 166 62q47 43 63 77q20 32 31 90q4 22 4 73v462q0 49 51 78q22 7 35 7q40 0 69 -36q18 -22 18 -65v-821q0 -70 -53 -94 q-22 -7 -34 -7q-50 0 -83 54q-14 12 -31 12q-11 0 -66 -28q-46 -23 -119 -33q-27 -4 -52 -5q-189 0 -327 136q-63 69 -91 141q-33 74 -33 196z" />
<glyph unicode="v" horiz-adv-x="1052" d="M70 944v3q0 44 45 70q17 8 33 8h3q44 0 70 -45l272 -623q13 -17 33 -17q31 0 47 50l261 599q28 36 65 36h4q40 0 66 -38q12 -20 12 -40v-3q0 -23 -35 -95q-3 -8 -337 -777q-26 -72 -85 -72q-32 0 -58 27q-11 8 -53 111q-5 10 -337 776q-6 16 -6 30z" />
<glyph unicode="w" horiz-adv-x="1519" d="M70 953q0 46 48 68q13 5 27 5q56 0 77 -72q189 -542 198 -562q13 -19 27 -19h9q27 0 41 60l194 549q25 44 64 44h8q37 0 63 -42q7 -15 192 -548q19 -60 35 -60q0 -3 9 -3h9q27 0 41 60l194 549q23 44 69 44t68 -48q5 -13 5 -27q0 -18 -38 -120l-274 -783q-14 -32 -45 -44 l-18 -4h-14q-32 6 -46 23q-17 17 -40 95l-183 517q-13 18 -27 18h-8q-29 0 -46 -71q-4 -8 -190 -539q-13 -28 -47 -40q-1 0 -13 -3h-14q-27 0 -54 31q-10 16 -34 90q-283 804 -286 817q-1 9 -1 15z" />
<glyph unicode="x" horiz-adv-x="1010" d="M100 937v1q0 51 51 79q19 7 32 7h5q43 0 73 -42q209 -280 214 -285q14 -12 32 -12q26 0 51 43q1 0 199 264q29 32 66 32h4q45 0 74 -46q10 -21 10 -40v-1q0 -34 -34 -73l-245 -327q-8 -12 -8 -26q0 -19 37 -62q230 -307 241 -323q9 -20 9 -39q0 -51 -50 -79 q-21 -8 -36 -8q-52 0 -91 63l-198 263q-13 13 -29 13h-3q-27 0 -51 -41l-202 -268q-29 -30 -65 -30q-41 0 -70 37q-16 23 -16 50q0 37 37 77q2 4 241 323q8 12 8 26q0 19 -37 62q-233 312 -233 313q-16 23 -16 49z" />
<glyph unicode="y" horiz-adv-x="1157" d="M80 932v7q0 49 54 78q24 6 33 6q65 0 95 -88q268 -620 278 -640q16 -18 35 -18q35 0 50 52l282 647q29 47 78 47q55 0 82 -61q4 -15 4 -23v-7q0 -21 -42 -109q-477 -1102 -495 -1138q-39 -67 -121 -95q-27 -8 -82 -8h-80q-3 0 -3 2v170q1 2 3 2h69q65 0 91 79 q61 133 61 155v5q0 24 -37 105q-341 783 -348 802q-7 15 -7 30z" />
<glyph unicode="z" horiz-adv-x="1006" d="M100 87q0 35 38 79q464 618 464 619q8 11 8 25q0 27 -32 40q-9 2 -21 2h-372q-48 0 -76 49q-9 21 -9 37q0 46 44 75q21 12 41 12h643q46 0 73 -46q11 -20 11 -42q0 -34 -38 -78q-464 -619 -464 -620q-7 -10 -7 -24q0 -28 31 -41q10 -1 22 -1h372q47 0 76 -50q8 -21 8 -37 q0 -46 -44 -75q-21 -11 -40 -11h-643q-46 0 -74 45q-11 21 -11 42z" />
<glyph unicode="{" d="M240 638v60q172 5 223 71t51 133v468q0 74 77 141.5t185 67.5h108v-50h-90q-61 0 -107 -33.5t-47 -91.5v-500q0 -83 -60.5 -158.5t-142.5 -76.5v-2q82 -1 143 -76t61 -158l-1 -500q1 -58 47 -91.5t107 -33.5h90v-50h-108q-108 0 -184.5 67.5t-77.5 141.5v468 q0 66 -51 132t-223 71z" />
<glyph unicode="|" d="M427 -418v1995h160v-1995h-160z" />
<glyph unicode="}" d="M130 -192h90q61 0 107 33.5t47 91.5l-1 500q0 83 61 158t144 76v2q-83 1 -143.5 76.5t-60.5 158.5v500q-1 58 -47 91.5t-107 33.5h-90v50h108q108 0 185 -67.5t77 -141.5v-468q0 -67 51 -133t223 -71v-60q-172 -5 -223 -71t-51 -132v-468q-1 -74 -77.5 -141.5 t-184.5 -67.5h-108v50z" />
<glyph unicode="~" d="M94 556v156q64 73 123 99t114 26q64 0 181.5 -49.5t172.5 -49.5q52 0 108.5 28t129.5 112v-156q-63 -72 -122 -97.5t-116 -25.5q-60 0 -177.5 48.5t-176.5 48.5q-51 0 -107.5 -28t-129.5 -112z" />
<glyph unicode="&#xa1;" horiz-adv-x="586" d="M184 914v7q0 58 62 93q23 9 40 9h10q56 0 92 -60q10 -26 10 -42v-10q0 -57 -62 -92q-22 -10 -40 -10h-7q-67 0 -99 71q-6 18 -6 34zM205 -336l43 1030q14 31 42 31h2q29 0 42 -32q42 -994 42 -1035q0 -32 -33 -60q-24 -17 -43 -17h-17q-37 0 -69 44q-7 20 -9 39z" />
<glyph unicode="&#xa2;" horiz-adv-x="1139" />
<glyph unicode="&#xa5;" horiz-adv-x="1262" />
<glyph unicode="&#xa8;" horiz-adv-x="1024" />
<glyph unicode="&#xa9;" horiz-adv-x="1631" d="M100 711v26q0 266 208 489q226 208 492 208h23q337 0 574 -293q134 -200 134 -404v-26q0 -354 -307 -586q-191 -125 -410 -125q-355 0 -586 304q-128 186 -128 407zM231 711q0 -255 216 -449q172 -131 373 -131q279 0 478 253q102 162 102 333q0 298 -267 492 q-159 94 -307 94h-20q-242 0 -433 -205q-142 -169 -142 -387zM356 703v28q0 155 120 296q148 148 315 148h37q148 0 271 -97q14 -15 14 -34v-17q0 -35 -51 -45q-32 0 -69 34q-91 48 -182 48q-182 0 -298 -182q-43 -82 -43 -156v-18q0 -182 191 -301q83 -37 153 -37 q115 0 225 80q11 2 23 2q37 0 51 -45v-12q0 -44 -51 -65q-114 -74 -248 -74q-234 0 -387 213q-71 122 -71 234z" />
<glyph unicode="&#xaa;" horiz-adv-x="775" d="M80 458v5q0 44 43 74q18 12 63 12h395q56 0 75 -21q19 -11 30 -49q2 -9 2 -16v-5q0 -43 -40 -71q-22 -14 -44 -14h-440q-35 0 -64 31q-20 26 -20 54zM81 936v20q0 74 57 148q46 55 124 77q31 8 55 8h204q27 0 36 19q2 7 2 9v3q-4 23 -28 51q-34 31 -59 35q-15 5 -52 5 h-159q-25 0 -46 24q-13 19 -13 38q0 32 31 53q17 8 29 8h184q89 0 165 -67q47 -49 60 -90q17 -38 17 -118v-396q0 -35 -37 -54q-9 -5 -28 -5q-33 0 -54 37q-4 15 -17 23q-8 3 -11 3h-5q-6 0 -43 -21q-83 -42 -162 -42h-12q-97 0 -176 78q-49 62 -58 116q-4 22 -4 38z M204 942q0 -46 43 -88q37 -26 71 -26h14q79 0 154 63q44 46 52 70q23 51 23 74q0 27 -33 30h-184q-58 0 -82 -17q-36 -21 -52 -65q-6 -19 -6 -35v-6z" />
<glyph unicode="&#xad;" horiz-adv-x="623" d="M100 506v13q0 45 49 72q18 8 33 8h265q52 0 79 -57q5 -17 5 -26v-9q0 -39 -44 -71q-24 -10 -37 -10h-268q-52 0 -79 58q-3 15 -3 22z" />
<glyph unicode="&#xae;" horiz-adv-x="1640" d="M103 716q0 370 325 604q193 114 379 114h28q273 0 499 -214q205 -216 205 -507q0 -334 -276 -564q-199 -151 -442 -151q-383 0 -618 348q-100 180 -100 370zM237 713q0 -283 239 -470q159 -114 351 -114q256 0 450 219q128 166 128 362v26q0 224 -191 413 q-178 154 -384 154h-18q-237 0 -427 -197q-148 -178 -148 -370v-23zM579 405v653q0 71 48 71h200q151 0 199 -65q57 -63 57 -137v-17q0 -94 -94 -163q-48 -19 -48 -40q0 -10 179 -287q6 -21 6 -23v-12q-9 -39 -40 -39h-6q-33 0 -74 79q-173 271 -185 285l-14 3h-97 q-40 0 -40 -63v-265q-12 -39 -40 -39h-8q-38 0 -43 59zM670 870q0 -66 66 -66h102q119 0 143 72q11 20 11 45q0 84 -97 114q-31 3 -54 3h-114q-57 0 -57 -66v-102z" />
<glyph unicode="&#xb0;" horiz-adv-x="674" d="M60 1164q0 116 81.5 197t197.5 81q115 0 196 -81.5t81 -196.5q0 -114 -82 -196t-197 -82q-117 0 -197 81t-80 197zM130 1163q0 -87 61 -147t148 -60t147 60t60 147t-60.5 148t-146.5 61t-147.5 -61t-61.5 -148z" />
<glyph unicode="&#xb2;" horiz-adv-x="1087" d="M100 2v170l651 640q66 84 66 172v10q0 88 -63 169q-89 98 -208 98q-126 0 -213 -102q-59 -79 -59 -169q0 -71 37 -138q12 -22 12 -40v-11q0 -43 -46 -70q-19 -10 -35 -10h-11q-61 0 -98 102q-33 84 -33 168q0 150 100 281q58 64 93 84q118 78 240 78h18q164 0 298 -119 q60 -60 85 -110q55 -104 55 -203v-27q0 -122 -84 -249q-29 -36 -79 -84l-409 -401q-8 -14 -8 -25q0 -35 41 -42h435q65 0 88 -37q16 -22 16 -42v-17q0 -37 -42 -67q-21 -11 -40 -11h-805q-2 0 -2 2z" />
<glyph unicode="&#xb3;" horiz-adv-x="1064" d="M80 431q0 65 45 89q19 10 35 10h14q39 0 68 -44q13 -19 13 -75q20 -98 59 -137q29 -35 57 -53q74 -48 148 -48h11q98 0 186 78q80 88 80 185v17q0 96 -80 184q-88 79 -186 79h-4q-2 0 -2 2v169q0 3 2 3h3q69 0 129 57q52 58 52 120v16q0 69 -62 130q-58 47 -119 47h-9 q-73 0 -135 -63q-46 -55 -46 -133q-3 -22 -21 -47q-29 -28 -59 -28h-13q-43 0 -71 47q-9 19 -9 35v10q0 99 62 196q15 25 64 72q108 84 220 84h24q123 0 234 -95q113 -116 113 -258v-11q0 -113 -75 -214q-21 -26 -36 -41q34 -22 58 -45q140 -137 140 -329q0 -173 -132 -312 q-72 -68 -149 -98q-81 -30 -154 -30h-16q-150 0 -278 101q-66 60 -78 84q-68 97 -81 209q-2 31 -2 37z" />
<glyph unicode="&#xb4;" horiz-adv-x="1024" />
<glyph unicode="&#xb9;" horiz-adv-x="650" d="M150 1091v169q0 2 2 2h7q64 0 119 58q43 53 43 105v6q0 2 2 2h170q2 0 2 -2v-1324q0 -58 -22 -78q-26 -29 -65 -29q-56 0 -81 58q-5 12 -5 49v925q0 46 -29 54q-5 2 -12 2h-129q-2 0 -2 3z" />
<glyph unicode="&#xba;" horiz-adv-x="869" d="M70 1061v11q0 129 92 239q49 50 73 63q25 17 61 33q71 27 134 27h11q126 0 234 -87q49 -46 62 -68q66 -99 66 -207v-11q0 -107 -68 -208q-38 -51 -86 -84q-40 -28 -78 -43q-69 -25 -127 -25h-14q-107 0 -207 68q-52 39 -85 86q-28 40 -43 78q-25 69 -25 128zM132 454v5 q0 43 39 71q23 15 44 15h444q37 0 67 -37q16 -25 16 -49v-5q0 -42 -39 -71q-24 -15 -44 -15h-444q-37 0 -68 37q-15 25 -15 49zM194 1068q0 -101 76 -176q42 -38 74 -48q46 -19 88 -19h9q66 0 133 42q105 79 105 202q0 94 -71 170q-77 71 -167 71h-9q-66 0 -132 -42 q-106 -80 -106 -200z" />
<glyph unicode="&#xbf;" horiz-adv-x="777" d="M36 -15q0 146 110 270q82 77 143 94q30 14 90 26q11 329 17 329q15 22 36 22h6q28 0 39 -33q2 -15 21 -495h-1q-36 7 -48 7h-22q-82 0 -156 -69q-52 -63 -59 -118q-4 -22 -4 -41q0 -107 97 -183q63 -41 124 -41h13q81 0 154 66q28 25 61 25q61 0 84 -68l1 -19 q0 -50 -66 -94q-104 -82 -248 -82q-150 0 -276 116q-66 73 -87 132q-29 76 -29 144v12zM328 913v11q0 58 66 94q23 7 35 7h8q65 0 99 -70q6 -19 6 -35v-7q0 -56 -61 -92q-24 -10 -41 -10h-11q-55 0 -91 61q-10 24 -10 41z" />
<glyph unicode="&#xc0;" horiz-adv-x="1540" />
<glyph unicode="&#xc1;" horiz-adv-x="1323" d="M20 68v9q0 29 31 91l539 1224q27 40 66 40h8q59 0 89 -94q462 -1045 466 -1060q81 -172 81 -193v-9q0 -50 -59 -74q-2 0 -25 -2q-59 0 -88 91q-116 262 -128 284q-21 25 -46 31l-11 2h-566q-35 -7 -50 -24q-16 -17 -92 -199q-57 -128 -75 -159q-28 -26 -58 -26 q-65 0 -82 68zM423 608q0 -35 45 -40h373q56 0 56 42q-1 9 -53 125l-154 347q-16 14 -28 14h-4q-32 0 -53 -69q-182 -407 -182 -417v-2zM539 1527v14q0 8 115 186q47 79 71 101q20 12 45 12h13q27 0 57 -37q10 -23 10 -43q0 -43 -57 -87q-191 -176 -196 -176q-10 -4 -14 -4 h-10q-34 10 -34 34z" />
<glyph unicode="&#xc2;" horiz-adv-x="1540" />
<glyph unicode="&#xc3;" horiz-adv-x="1540" />
<glyph unicode="&#xc4;" horiz-adv-x="1540" />
<glyph unicode="&#xc5;" horiz-adv-x="1321" d="M20 80q0 20 33 90q524 1193 539 1223q26 40 69 40q58 0 82 -70q25 -53 500 -1136q52 -112 58 -137v-12q0 -50 -55 -73q-16 -5 -26 -5q-59 0 -88 84q-117 266 -127 286q-26 39 -69 39h-550q-63 0 -88 -80q-9 -18 -126 -284q-27 -45 -73 -45q-44 0 -72 48q-6 17 -7 32z M383 1692q0 116 81.5 197t197.5 81q115 0 196 -81.5t81 -196.5q0 -114 -82 -196t-197 -82q-117 0 -197 81t-80 197zM424 606q0 -27 31 -37h405q31 0 38 37q0 13 -38 94q-160 367 -168 381q-14 16 -32 16q-31 0 -47 -53q-187 -420 -189 -431v-7zM453 1691q0 -87 61 -147 t148 -60t147 60t60 147t-60.5 148t-146.5 61t-147.5 -61t-61.5 -148z" />
<glyph unicode="&#xc6;" horiz-adv-x="2118" />
<glyph unicode="&#xc7;" horiz-adv-x="1399" />
<glyph unicode="&#xc8;" horiz-adv-x="1151" />
<glyph unicode="&#xc9;" horiz-adv-x="1093" d="M100 111v1212q0 72 30 89q16 22 81 22h674q64 0 84 -23q26 -28 26 -55v-17q0 -41 -46 -69q-16 -9 -64 -9h-500q-70 0 -88 -29q-23 -16 -23 -83v-234q0 -70 28 -87q17 -24 83 -24h500q63 0 84 -24q26 -28 26 -54v-18q0 -40 -46 -68q-16 -10 -64 -10h-500q-70 0 -88 -28 q-23 -17 -23 -83v-234q0 -71 30 -89q18 -22 79 -22h502q64 0 84 -24q26 -28 26 -54v-18q0 -40 -45 -67q-13 -11 -65 -11h-674q-64 0 -86 25q-25 20 -25 86zM506 1559v12q0 12 91 148q71 117 98 152q29 25 59 25h8q48 0 75 -52q6 -19 6 -39q0 -44 -76 -103 q-194 -178 -199 -178l-11 -4h-14q-31 0 -37 39z" />
<glyph unicode="&#xca;" horiz-adv-x="1151" />
<glyph unicode="&#xcb;" horiz-adv-x="1151" />
<glyph unicode="&#xcc;" horiz-adv-x="657" />
<glyph unicode="&#xcd;" horiz-adv-x="373" d="M50 1541v2q0 21 36 72q137 215 152 235q27 27 69 27q56 0 80 -65q1 -9 1 -17v-12q0 -40 -64 -88q-199 -185 -212 -190q-6 -4 -10 -4h-16q-36 9 -36 40zM95 110v1214q0 74 36 94q20 16 43 16h16q54 0 76 -66q3 -10 3 -44v-1210q0 -73 -27 -90q-24 -24 -59 -24h-2 q-62 0 -84 69q-2 24 -2 41z" />
<glyph unicode="&#xce;" horiz-adv-x="657" />
<glyph unicode="&#xcf;" horiz-adv-x="657" />
<glyph unicode="&#xd1;" horiz-adv-x="1191" d="M100 76v1281q0 44 50 71q17 5 27 5h6q48 0 88 -73q620 -948 628 -959q7 -7 18 -7q15 6 15 26v936q0 47 52 72q13 5 25 5h5q47 0 72 -51q5 -14 5 -26v-1278q0 -50 -53 -73q-5 -2 -26 -5q-51 0 -85 65q-4 4 -557 852q-68 104 -79 118q-6 4 -10 4h-5q-13 0 -15 -21v-918 q0 -70 -45 -91q-22 -9 -36 -9q-52 0 -76 55q-4 14 -4 21zM323 1551q0 33 54 80q50 36 106 36q46 0 114 -33q90 -40 103 -40q4 -1 15 -1h8q53 0 95 65q14 9 28 9h1q26 0 38 -36v-4q0 -33 -66 -86q-55 -31 -103 -31q-49 0 -131 41q-79 35 -93 35h-13q-51 0 -86 -62 q-13 -12 -28 -12q-42 5 -42 39z" />
<glyph unicode="&#xd2;" horiz-adv-x="1614" />
<glyph unicode="&#xd3;" horiz-adv-x="1470" d="M20 713v22q0 201 128 393q24 38 101 116q124 112 282 159q106 30 191 30h28q195 0 390 -123q109 -75 196 -200q115 -188 115 -375v-22q0 -288 -214 -510q-220 -203 -504 -203q-303 0 -532 237q-181 212 -181 476zM191 715q0 -160 101 -311q78 -103 165 -152 q134 -77 263 -77h31q173 0 336 128q87 81 119 142q73 131 73 260v23q0 186 -139 351q-83 83 -133 107q-132 73 -256 73h-31q-160 0 -318 -114q-69 -58 -107 -111q-104 -152 -104 -319zM692 1563q0 18 35 68q131 206 156 242q28 23 64 23q57 0 81 -64q2 -12 2 -18v-14 q0 -38 -56 -80q-210 -194 -221 -200l-8 -1h-15q-33 0 -38 44z" />
<glyph unicode="&#xd4;" horiz-adv-x="1614" />
<glyph unicode="&#xd5;" horiz-adv-x="1614" />
<glyph unicode="&#xd6;" horiz-adv-x="1537" d="M50 697v26q0 253 175 467q89 90 129 114q193 130 404 130h17q204 0 394 -123q49 -32 122 -103q192 -218 192 -485v-24q0 -200 -130 -397q-80 -108 -184 -179q-186 -123 -404 -123q-264 0 -478 182q-96 97 -107 123q-47 64 -78 140q-52 136 -52 252zM222 718 q0 -243 195 -418q163 -126 337 -126h25q170 0 329 120q202 175 202 425q0 211 -156 380q-99 92 -178 119q-103 42 -193 42h-34q-147 0 -301 -101q-99 -77 -142 -154q-84 -135 -84 -287zM480 1605v10q0 58 67 93q21 6 31 6h17q50 0 87 -54q12 -25 12 -46v-9q0 -75 -79 -103 q-20 -4 -29 -4q-54 0 -91 51q-15 24 -15 56zM837 1608q0 74 79 103q13 3 21 3h16q47 0 82 -47q18 -26 18 -62q0 -71 -75 -102q-23 -5 -34 -5q-50 0 -87 45q-20 29 -20 65z" />
<glyph unicode="&#xd9;" horiz-adv-x="1501" />
<glyph unicode="&#xda;" horiz-adv-x="1271" d="M100 528v825q0 55 64 79q9 2 15 2h14q54 0 78 -66q2 -9 2 -15v-777q0 -217 143 -324q100 -78 224 -78q178 0 300 161q62 100 62 198v790q0 75 37 95q20 16 43 16h15q53 0 76 -64q4 -17 4 -47v-795q0 -199 -154 -368q-166 -160 -386 -160q-249 0 -425 207 q-112 157 -112 321zM595 1562v3q0 21 43 81q121 192 149 230q26 22 67 22q50 0 76 -62q3 -16 3 -23v-3q0 -47 -62 -93q-209 -193 -215 -193q-7 -4 -14 -4h-11q-27 0 -36 42z" />
<glyph unicode="&#xdb;" horiz-adv-x="1501" />
<glyph unicode="&#xdc;" horiz-adv-x="1274" d="M100 529v797q0 67 29 85q21 23 53 23h10q54 0 79 -63q3 -21 3 -45v-797q0 -99 67 -203q120 -154 299 -154q154 0 269 121q95 111 95 239v794q0 69 30 87q21 21 52 21h10q53 0 79 -63q3 -21 3 -45v-797q0 -154 -95 -298q-83 -112 -180 -163q-129 -68 -247 -68h-34 q-141 0 -285 91q-49 31 -118 107q-119 156 -119 331zM351 1602v9q0 65 72 98q19 5 32 5h9q64 0 97 -71q6 -20 6 -32v-9q0 -64 -72 -97q-19 -6 -31 -6h-9q-65 0 -98 72q-6 19 -6 31zM711 1602v9q0 65 72 98q19 5 31 5h9q65 0 98 -71q5 -20 5 -32v-9q0 -64 -72 -97 q-19 -6 -31 -6h-9q-65 0 -98 72q-5 19 -5 31z" />
<glyph unicode="&#xdd;" horiz-adv-x="1233" />
<glyph unicode="&#xdf;" horiz-adv-x="1251" />
<glyph unicode="&#xe0;" horiz-adv-x="922" />
<glyph unicode="&#xe1;" horiz-adv-x="1050" d="M100 332v16q0 124 96 230q63 60 118 78q64 24 118 24h281q48 0 56 29q2 5 2 10v5q-2 31 -43 78q-48 42 -96 48q-17 2 -57 2h-226q-42 0 -71 51q-7 21 -7 36q0 50 52 79q16 6 26 6h269q134 0 243 -110q91 -105 91 -226v-610q0 -28 -25 -54q-25 -24 -58 -24h-12 q-31 0 -60 34q-7 10 -21 38q-15 16 -29 16h-5q-15 0 -52 -24q-121 -64 -232 -64h-26q-124 0 -230 96q-60 63 -78 118q-24 64 -24 118zM273 345v-10q0 -58 48 -111q53 -51 117 -51h6q119 0 220 85q59 58 71 88q39 76 39 113q1 0 1 6q0 35 -43 42h-294q-61 0 -113 -47 q-52 -54 -52 -115zM483 1144v12q0 16 28 55q145 229 162 252q28 25 62 25q61 0 84 -63q3 -13 3 -27q0 -43 -57 -87q-217 -197 -219 -197q-6 -3 -20 -5q-32 0 -43 35z" />
<glyph unicode="&#xe2;" horiz-adv-x="922" />
<glyph unicode="&#xe3;" horiz-adv-x="922" />
<glyph unicode="&#xe4;" horiz-adv-x="922" />
<glyph unicode="&#xe5;" horiz-adv-x="922" />
<glyph unicode="&#xe6;" horiz-adv-x="1454" />
<glyph unicode="&#xe7;" horiz-adv-x="905" />
<glyph unicode="&#xe8;" horiz-adv-x="909" />
<glyph unicode="&#xe9;" horiz-adv-x="1211" d="M100 510q0 217 161 376q155 138 351 138q231 0 395 -184q38 -45 38 -78v-2q0 -54 -70 -95l-533 -382q-13 -14 -13 -31v-7q0 -36 114 -64q34 -7 53 -7h17q167 0 277 145q40 57 53 122q8 32 32 54q26 17 48 17h13q50 0 76 -60q4 -13 4 -26q-9 -87 -79 -202q-31 -42 -77 -89 q-157 -135 -341 -135h-12q-187 0 -343 135q-75 77 -91 115q-73 123 -73 260zM272 512q4 -68 11 -68q13 -23 32 -23h8q17 0 82 50q336 239 379 273q13 14 13 30q0 33 -62 53q-60 24 -104 24h-20q-154 0 -261 -125q-78 -99 -78 -214zM569 1153q0 21 39 74q121 193 153 238 q27 22 57 22h8q50 0 77 -55q5 -18 5 -32q0 -46 -57 -89q-203 -186 -213 -192q0 -5 -26 -9h-1q-42 6 -42 43z" />
<glyph unicode="&#xea;" horiz-adv-x="909" />
<glyph unicode="&#xeb;" horiz-adv-x="909" />
<glyph unicode="&#xec;" horiz-adv-x="514" />
<glyph unicode="&#xed;" horiz-adv-x="375" d="M60 1134q0 20 26 56q142 223 165 254q27 25 62 25q58 0 82 -60q4 -17 4 -29q0 -45 -56 -87q-213 -195 -219 -197q-16 -5 -22 -5q-23 0 -38 24q-4 9 -4 19zM105 106v817q0 74 54 97q16 5 24 5h16q35 0 63 -34q17 -24 17 -48v-861q0 -47 -53 -75q-17 -7 -30 -7h-8 q-48 0 -76 52q-7 18 -7 54z" />
<glyph unicode="&#xee;" horiz-adv-x="514" />
<glyph unicode="&#xef;" horiz-adv-x="514" />
<glyph unicode="&#xf1;" horiz-adv-x="1086" d="M100 101v823q0 48 22 70q29 30 64 30q50 0 81 -52q14 -14 34 -14q11 0 65 29q91 37 182 37q89 0 186 -42q170 -85 231 -260q24 -66 24 -174v-447q0 -68 -46 -90q-19 -11 -41 -11q-34 0 -63 29q-23 22 -23 72v473q0 142 -115 227q-72 50 -157 50q-115 0 -200 -89 q-71 -79 -71 -188v-473q0 -68 -46 -90q-19 -11 -41 -11q-34 0 -63 29q-23 22 -23 72zM248 1197q0 25 48 74q56 49 129 49q45 0 118 -34q88 -40 112 -46q4 0 18 -1q66 0 106 63q16 18 31 18h7q18 0 32 -19q7 -9 9 -24q0 -34 -67 -89q-54 -36 -119 -36q-48 0 -109 30 q-110 50 -126 50q-5 1 -13 1h-4q-59 0 -94 -65q-16 -16 -35 -16q-27 0 -42 33q0 2 -1 12z" />
<glyph unicode="&#xf2;" horiz-adv-x="1010" />
<glyph unicode="&#xf3;" horiz-adv-x="1183" d="M80 514q0 211 162 373q69 59 115 80q113 57 219 57h30q138 0 274 -87q87 -60 142 -144q83 -131 83 -281q0 -219 -166 -379q-56 -48 -101 -72q-121 -61 -232 -61h-27q-149 0 -294 101q-73 59 -111 113q-94 137 -94 300zM254 512q0 -155 123 -261q97 -78 216 -78 q150 0 262 124q76 98 76 215v11q0 122 -99 229q-107 99 -234 99h-9q-127 0 -232 -96q-103 -108 -103 -232v-11zM550 1144v9q0 23 33 66q130 208 157 243q26 25 58 25h9q47 0 74 -51q7 -17 7 -30v-12q0 -41 -66 -92q-201 -184 -210 -189q-11 -4 -19 -4q-33 0 -43 35z" />
<glyph unicode="&#xf4;" horiz-adv-x="1010" />
<glyph unicode="&#xf5;" horiz-adv-x="1010" />
<glyph unicode="&#xf6;" horiz-adv-x="1123" d="M50 512q0 190 130 342q63 65 93 81q53 36 102 55q97 35 174 35h28q94 0 202 -47q47 -19 126 -83q64 -61 87 -101q84 -130 84 -283q0 -176 -115 -324q-55 -62 -88 -84q-144 -103 -299 -103h-22q-150 0 -290 96q-69 51 -121 123q-91 137 -91 293zM224 514v-11 q0 -119 94 -226q107 -104 246 -104q127 0 233 93q63 66 82 123q23 59 23 114v11q0 150 -121 258q-68 57 -158 74q-33 6 -53 6h-12q-94 0 -188 -60q-88 -64 -125 -162q-21 -55 -21 -116zM276 1189v12q0 64 68 97q19 7 34 7h11q59 0 93 -63q9 -18 9 -41v-12q0 -43 -44 -80 q-33 -20 -64 -20q-63 0 -98 63q-9 23 -9 37zM635 1189v12q0 64 68 97q18 7 34 7h11q59 0 93 -63q9 -18 9 -41v-12q0 -43 -44 -80q-33 -20 -64 -20q-63 0 -98 63q-9 23 -9 37z" />
<glyph unicode="&#xf9;" horiz-adv-x="1059" />
<glyph unicode="&#xfa;" horiz-adv-x="1088" d="M100 436v481q0 70 38 90q20 16 50 16q59 0 83 -65q2 -21 2 -41v-478q0 -102 83 -191q72 -60 129 -68q22 -6 58 -8q132 0 223 115q50 77 50 152v482q0 81 68 100q13 2 20 2h1q55 0 80 -60q4 -14 4 -23v-857q0 -55 -60 -79q-12 -4 -27 -4q-48 0 -77 47q-16 18 -36 18 q-11 0 -65 -28q-87 -37 -172 -37h-19q-142 0 -274 102q-61 56 -86 97q-73 118 -73 237zM501 1151q0 20 35 66q130 209 154 240q28 28 63 28q64 0 86 -69q1 -10 1 -20q0 -45 -57 -87q-212 -195 -219 -197q-12 -4 -20 -4q-43 5 -43 43z" />
<glyph unicode="&#xfb;" horiz-adv-x="1059" />
<glyph unicode="&#xfc;" horiz-adv-x="1087" d="M100 438v503q0 44 45 74q23 9 38 9h7q45 0 73 -46q10 -21 10 -37v-460q0 -107 27 -152q6 -19 37 -58q53 -56 81 -65q60 -32 116 -32h19q87 0 170 66q55 54 71 99q22 50 22 95v490q0 70 50 92q17 8 34 8h7q45 0 73 -46q9 -21 9 -37v-858q0 -44 -42 -71q-23 -12 -42 -12h-5 q-47 0 -79 52q-15 13 -30 13q-16 0 -54 -21q-94 -44 -186 -44h-12q-155 0 -290 111q-70 69 -90 113q-59 105 -59 214zM258 1193v9q0 57 61 91q22 10 41 10h7q65 0 98 -66q8 -20 8 -33v-11q0 -66 -68 -98q-20 -7 -41 -7q-56 0 -90 51q-16 25 -16 54zM617 1193v9q0 57 60 91 q22 10 42 10h7q64 0 98 -66q7 -20 7 -33v-11q0 -67 -69 -98q-17 -7 -40 -7q-56 0 -90 51q-15 25 -15 54z" />
<glyph unicode="&#xfd;" horiz-adv-x="868" />
<glyph unicode="&#xff;" horiz-adv-x="868" />
<glyph unicode="&#x152;" horiz-adv-x="2565" d="M20 709q0 304 224 527l45 39q138 107 294 140q83 17 152 17q252 0 461 -168q74 -67 103 -106q153 -200 153 -449q0 -193 -115 -381q-28 -48 -102 -126q-95 -85 -169 -121q-162 -81 -331 -81q-198 0 -383 112q-212 137 -296 381q-36 120 -36 216zM195 709q0 -184 127 -344 q76 -80 99 -89q145 -101 304 -101h22q178 0 339 126q85 80 109 127q82 136 82 281v14q0 184 -127 344q-76 80 -99 89q-145 101 -304 101h-22q-178 0 -339 -126q-85 -80 -109 -127q-82 -136 -82 -281v-14zM1576 103v1229q0 54 25 76q22 27 80 27h686q74 0 95 -49 q10 -19 10 -38q0 -52 -54 -80q-19 -7 -51 -7h-530q-61 0 -83 -60q-5 -10 -5 -46v-245q0 -56 21 -75q25 -30 67 -30h530q74 0 95 -49q10 -19 10 -38q0 -53 -54 -81q-19 -7 -51 -7h-530q-61 0 -83 -60q-5 -10 -5 -45v-245q0 -57 21 -75q25 -31 67 -31h530q74 0 95 -48 q10 -19 10 -39q0 -52 -54 -80q-19 -7 -51 -7h-686q-55 0 -77 24q-28 22 -28 79z" />
<glyph unicode="&#x153;" horiz-adv-x="2223" d="M50 513q0 190 132 343q68 69 98 84q134 85 274 85h17q158 0 307 -108q68 -57 95 -98q102 -140 102 -307q0 -202 -147 -360q-79 -75 -150 -104q-107 -48 -207 -48h-17q-160 0 -308 109q-55 45 -86 87q-110 142 -110 317zM224 505q0 -129 102 -237q106 -94 230 -94h13 q138 0 247 112q85 103 85 219v7q0 143 -105 247q-58 52 -119 73q-58 19 -105 19h-19q-84 0 -172 -52q-30 -18 -75 -64q-53 -67 -66 -119q-16 -43 -16 -104v-7zM1163 510q0 184 122 335q57 60 83 77q142 103 308 103q213 0 374 -161q58 -64 58 -96q0 -7 1 -11q0 -32 -29 -62 q-16 -13 -496 -354q0 -1 -81 -59q-12 -14 -12 -28v-6q0 -19 21 -33q81 -41 153 -41h20q115 0 218 86q56 57 66 82q17 27 33 75q10 49 28 68q30 27 61 27q60 0 83 -57q5 -12 5 -27v-3q-1 -39 -37 -127q-21 -48 -69 -110q-50 -57 -88 -84q-65 -47 -115 -65q-96 -39 -184 -39 h-16q-155 0 -298 99q-69 53 -113 115q-33 49 -52 90q-44 109 -44 206zM1337 514q0 -70 17 -83q13 -12 32 -12q15 0 56 34q5 2 403 286q15 14 15 32v6q0 18 -20 32q-81 42 -153 42h-20q-117 0 -224 -91q-106 -108 -106 -246z" />
<glyph unicode="&#x178;" horiz-adv-x="1198" d="M30 1349q0 34 32 65q29 20 53 20q57 0 94 -70l353 -527q16 -16 35 -16q29 0 57 52l352 524q29 37 70 37q43 0 74 -42q12 -28 12 -42q0 -24 -15 -51q0 -3 -440 -658q-24 -30 -24 -55v-481q0 -73 -49 -95q0 -4 -39 -10q-47 0 -77 50q-9 20 -9 55v481q0 26 -26 59l-438 654 q-15 27 -15 50z" />
<glyph unicode="&#x2000;" horiz-adv-x="985" />
<glyph unicode="&#x2001;" horiz-adv-x="1970" />
<glyph unicode="&#x2002;" horiz-adv-x="985" />
<glyph unicode="&#x2003;" horiz-adv-x="1970" />
<glyph unicode="&#x2004;" horiz-adv-x="656" />
<glyph unicode="&#x2005;" horiz-adv-x="492" />
<glyph unicode="&#x2006;" horiz-adv-x="328" />
<glyph unicode="&#x2007;" horiz-adv-x="328" />
<glyph unicode="&#x2008;" horiz-adv-x="246" />
<glyph unicode="&#x2009;" horiz-adv-x="394" />
<glyph unicode="&#x200a;" horiz-adv-x="109" />
<glyph unicode="&#x2010;" horiz-adv-x="623" d="M100 506v13q0 45 49 72q18 8 33 8h265q52 0 79 -57q5 -17 5 -26v-9q0 -39 -44 -71q-24 -10 -37 -10h-268q-52 0 -79 58q-3 15 -3 22z" />
<glyph unicode="&#x2011;" horiz-adv-x="623" d="M100 506v13q0 45 49 72q18 8 33 8h265q52 0 79 -57q5 -17 5 -26v-9q0 -39 -44 -71q-24 -10 -37 -10h-268q-52 0 -79 58q-3 15 -3 22z" />
<glyph unicode="&#x2012;" horiz-adv-x="623" d="M100 506v13q0 45 49 72q18 8 33 8h265q52 0 79 -57q5 -17 5 -26v-9q0 -39 -44 -71q-24 -10 -37 -10h-268q-52 0 -79 58q-3 15 -3 22z" />
<glyph unicode="&#x2013;" horiz-adv-x="1024" d="M204 512v204h616v-204h-616z" />
<glyph unicode="&#x2014;" horiz-adv-x="2048" d="M204 512v204h1640v-204h-1640z" />
<glyph unicode="&#x2018;" horiz-adv-x="377" d="M109 1096q43 327 46 340q13 25 38 25h5q36 0 42 -46q41 -300 42 -325q0 -46 -48 -73q-16 -9 -32 -9h-13q-43 0 -72 49q-8 18 -8 39z" />
<glyph unicode="&#x2019;" horiz-adv-x="373" d="M100 1381q0 48 50 76q18 8 36 8h1q58 0 83 -61q3 -15 3 -23q0 -21 -45 -343q-14 -28 -43 -28q-38 0 -43 50q-42 311 -42 321z" />
<glyph unicode="&#x201c;" horiz-adv-x="680" d="M108 1098q43 328 46 341q14 25 38 25h5q36 0 42 -47q41 -300 42 -324q0 -47 -47 -74q-17 -9 -33 -9h-13q-43 0 -72 49q-8 18 -8 39zM409 1097q42 318 46 341q14 26 38 26h6q37 0 42 -52q41 -305 41 -314v-5q0 -57 -63 -81q-9 -2 -20 -2h-6q-44 0 -72 42q-12 23 -12 45z " />
<glyph unicode="&#x201d;" horiz-adv-x="680" d="M106 1373q0 48 50 76q18 8 36 8h1q58 0 82 -61q4 -15 4 -23q0 -21 -45 -343q-14 -27 -43 -27q-38 0 -43 50q-42 310 -42 320zM406 1371q0 53 56 80q15 6 34 6q47 0 74 -47q9 -17 9 -33v-9q-41 -326 -46 -341q-15 -24 -39 -24h-2q-29 0 -40 32q-4 16 -46 336z" />
<glyph unicode="&#x2026;" horiz-adv-x="1236" d="M100 107q0 36 24 69q37 39 79 39h11q51 0 88 -53q14 -26 14 -50v-9q0 -51 -49 -86q-27 -17 -53 -17h-11q-50 0 -87 51q-16 30 -16 56zM512 107q0 36 24 69q37 39 79 39h11q51 0 88 -53q14 -26 14 -50v-9q0 -51 -49 -86q-27 -17 -53 -17h-11q-50 0 -87 51q-16 30 -16 56z M924 107q0 36 24 69q37 39 79 39h11q51 0 88 -53q14 -26 14 -50v-9q0 -51 -49 -86q-27 -17 -53 -17h-11q-50 0 -87 51q-16 30 -16 56z" />
<glyph unicode="&#x202f;" horiz-adv-x="394" />
<glyph unicode="&#x2039;" d="M87 674v83l840 484v-167l-625 -359l625 -355v-167z" />
<glyph unicode="&#x203a;" d="M87 193v167l625 355l-625 359v167l840 -484v-83z" />
<glyph unicode="&#x205f;" horiz-adv-x="492" />
<glyph unicode="&#x20ac;" d="M-44 653l17 60h87v29q0 16 1 31h-71l17 60h58q14 145 76 281q81 178 226 274t298 96q43 0 87 -8q40 -10 82 -29q8 -6 16 -6q20 0 34 45h41l84 -281l-40 -1q-49 134 -138 178q-43 22 -81 32v3q-50 16 -101 16q-17 0 -34 -2q-120 -12 -226 -113.5t-157 -273.5 q-32 -104 -39 -211h706l-17 -60h-692q0 -30 2 -60h674l-17 -60h-652q17 -158 83 -298q74 -157 193 -236q102 -68 216 -69q186 3 256 91q74 91 74 185h48v-143q0 -70 -111 -127q-105 -54 -267 -56q-181 0 -325.5 98t-223.5 274q-62 135 -76 281h-108z" />
<glyph unicode="&#x2122;" horiz-adv-x="2788" d="M14 1348q0 60 64 83q11 4 37 4h1046q74 0 96 -57q5 -17 5 -30q0 -60 -64 -83q-11 -4 -37 -4h-350q-58 0 -82 -60q-4 -10 -4 -18v-1078q0 -77 -56 -99q-20 -6 -32 -6q-50 0 -78 52q-8 18 -8 53v1070q0 56 -56 80q-13 6 -31 6h-349q-74 0 -96 57q-5 17 -5 30zM1380 77v1280 q0 47 50 71q9 3 31 6q45 0 85 -65l424 -557q28 -30 55 -30h13q40 0 79 63l432 566q24 20 52 23q53 0 77 -51q5 -14 5 -26v-1280q0 -42 -42 -68q-18 -9 -34 -9h-4q-42 0 -68 42q-9 19 -9 35v929q0 27 -27 37l-8 2h-7q-22 0 -55 -53q-336 -440 -345 -450q-24 -17 -45 -20h-15 q-26 0 -55 31l-367 483q-13 9 -22 9h-8q-27 0 -35 -36v-932q0 -42 -42 -68q-18 -9 -34 -9h-4q-42 0 -68 42q-9 19 -9 35z" />
<glyph unicode="&#xe000;" horiz-adv-x="1025" d="M0 1025h1025v-1025h-1025v1025z" />
<glyph unicode="&#xfb01;" horiz-adv-x="1063" d="M100 102v891q0 121 34 193q61 137 200 207q88 40 185 40q21 0 53 -25q25 -29 25 -61q0 -58 -63 -83q-14 -3 -68 -8q-24 -3 -73 -28q-119 -74 -119 -211v-177q0 -22 32 -36h189q62 0 84 -36q18 -25 18 -51q0 -49 -49 -78q-18 -9 -53 -9h-134q-64 0 -85 -65q-2 -5 -2 -14 v-449q0 -62 -37 -84q-24 -18 -50 -18q-49 0 -78 49q-9 18 -9 53zM770 1254v9q0 68 72 99q18 6 32 6h6q59 0 93 -59q11 -21 11 -45v-10q0 -57 -61 -92q-22 -10 -46 -10q-68 0 -100 68q-7 18 -7 34zM790 103v817q0 68 41 90q19 13 39 13h14q34 0 63 -34q16 -25 16 -47v-859 q0 -47 -51 -76q-20 -7 -31 -7h-8q-42 0 -71 44q-12 19 -12 59z" />
<glyph unicode="&#xfb02;" horiz-adv-x="1047" d="M100 102v891q0 121 34 193q61 137 200 207q88 40 185 40q21 0 53 -25q25 -29 25 -61q0 -58 -63 -83q-14 -3 -68 -8q-24 -3 -73 -28q-119 -74 -119 -211v-177q0 -22 32 -36h189q62 0 84 -36q18 -25 18 -51q0 -49 -49 -78q-18 -9 -53 -9h-134q-64 0 -85 -65q-2 -5 -2 -14 v-449q0 -62 -37 -84q-24 -18 -50 -18q-49 0 -78 49q-9 18 -9 53zM790 94v1246q0 66 48 86q9 6 32 8q50 0 75 -54q4 -17 4 -40v-1246q0 -66 -47 -87q-10 -5 -32 -7q-50 0 -76 54q-4 16 -4 40z" />
<glyph unicode="&#xfb03;" horiz-adv-x="1753" d="M100 102v891q0 121 34 193q61 137 200 207q88 40 185 40q21 0 53 -25q25 -29 25 -61q0 -58 -63 -83q-14 -3 -68 -8q-24 -3 -73 -28q-119 -74 -119 -211v-177q0 -22 32 -36h189q62 0 84 -36q18 -25 18 -51q0 -49 -49 -78q-18 -9 -53 -9h-134q-64 0 -85 -65q-2 -5 -2 -14 v-449q0 -62 -37 -84q-24 -18 -50 -18q-49 0 -78 49q-9 18 -9 53zM790 102v891q0 121 34 193q61 137 200 207q88 40 185 40q21 0 53 -25q25 -29 25 -61q0 -58 -63 -83q-14 -3 -68 -8q-24 -3 -73 -28q-119 -74 -119 -211v-177q0 -22 32 -36h189q62 0 84 -36q18 -25 18 -51 q0 -49 -49 -78q-18 -9 -53 -9h-134q-64 0 -85 -65q-2 -5 -2 -14v-449q0 -62 -37 -84q-24 -18 -50 -18q-49 0 -78 49q-9 18 -9 53zM1460 1254v9q0 68 72 99q18 6 32 6h6q59 0 93 -59q11 -21 11 -45v-10q0 -57 -61 -92q-22 -10 -46 -10q-68 0 -100 68q-7 18 -7 34zM1480 103 v817q0 68 41 90q19 13 39 13h14q34 0 63 -34q16 -25 16 -47v-859q0 -47 -51 -76q-20 -7 -31 -7h-8q-42 0 -71 44q-12 19 -12 59z" />
<glyph unicode="&#xfb04;" horiz-adv-x="1737" d="M100 102v891q0 121 34 193q61 137 200 207q88 40 185 40q21 0 53 -25q25 -29 25 -61q0 -58 -63 -83q-14 -3 -68 -8q-24 -3 -73 -28q-119 -74 -119 -211v-177q0 -22 32 -36h189q62 0 84 -36q18 -25 18 -51q0 -49 -49 -78q-18 -9 -53 -9h-134q-64 0 -85 -65q-2 -5 -2 -14 v-449q0 -62 -37 -84q-24 -18 -50 -18q-49 0 -78 49q-9 18 -9 53zM790 102v891q0 121 34 193q61 137 200 207q88 40 185 40q21 0 53 -25q25 -29 25 -61q0 -58 -63 -83q-14 -3 -68 -8q-24 -3 -73 -28q-119 -74 -119 -211v-177q0 -22 32 -36h189q62 0 84 -36q18 -25 18 -51 q0 -49 -49 -78q-18 -9 -53 -9h-134q-64 0 -85 -65q-2 -5 -2 -14v-449q0 -62 -37 -84q-24 -18 -50 -18q-49 0 -78 49q-9 18 -9 53zM1480 94v1246q0 66 48 86q9 6 32 8q50 0 75 -54q4 -17 4 -40v-1246q0 -66 -47 -87q-10 -5 -32 -7q-50 0 -76 54q-4 16 -4 40z" />
</font>
</defs>
</svg>
